Lugovoi Pirc Defence Complete.rar | Chessbase Pirc Defence Complete Cd.rar | One.Late.Night.Deadline RELOADED.rar
[Login] or [Signup]
Login
Username:
Password:
[Signup]
[Recover Account]


Poll


You must be logged in to view polls



Torrent Details For "Indu Sarkar (2017)New Source - Pre DvDScr Rip [Mp4 - AAC3(2Ch)] - 850 MB "

Indu Sarkar (2017)New Source - Pre DvDScr Rip [Mp4 - AAC3(2Ch)] - 850 MB

Download this torrent | Magnet Download
Health:
Seeds: 0
Leechers: 32
Completed: 259 
Last Checked: 19-11-2017 17:56:48
External Torrent
Update Stats
Download Magnet


Poster


iMDB
Imdb Picture Title: Indu Sarkar
Year: 2017
Votes: 238
Rating: 7.5/10
Language: Hindi
Country: India
All Genres: Drama, Fantasy, Thriller
Plot Outline: Indu Sarkar is set during the emergency period between 1975 to 1977 declared by Prime Minister Indra Gandhi.
Director: Madhur Bhandarkar
Writing By: Madhur Bhandarkar,Sanjay Chhel,Anil Pandey,
Produced By: Sanjay Dawra,Shahin Ezaz,
Plot:

Indu Sarkar is set during the emergency period between 1975 to 1977 declared by Prime Minister Indra Gandhi.

- Written by [email protected]
Cast:
Sheeba Chaddha as
Parvin Dabas as
Zakir Hussain as
Anupam Kher as
Kirti Kulhari as
Neil Nitin Mukesh as
Tota Roy Chowdhury as
Abhinav Sharma as Shreedhar
Ankur Vikal as
Supriya Vinod as


Watch-Free-HD     Download

Details
Name:Indu Sarkar (2017)New Source - Pre DvDScr Rip [Mp4 - AAC3(2Ch)] - 850 MB
Description:
  Indu Sarkar (2017)New Source - Pre DvDScr Rip
[Mp4 - AAC3(2Ch)] - 850 MB  
 





General
Format                                   : MPEG-4
Format profile                           : Base Media
Codec ID                                 : isom (isom)
File size                                : 850 MiB
Duration                                 : 2 h 37 min

Video
ID                                       : 1
Format                                   : AVC
Format/Info                              : Advanced Video Codec
Format profile                           : [email protected]
Format settings, CABAC                   : Yes
Format settings, RefFrames               : 4 frames
Codec ID                                 : avc1
Codec ID/Info                            : Advanced Video Coding
Duration                                 : 2 h 37 min
Bit rate                                 : 624 kb/s
Maximum bit rate                         : 2 182 kb/s
Width                                    : 640 pixels
Height                                   : 336 pixels
Display aspect ratio                     : 1.905
Frame rate mode                          : Constant
Frame rate                               : 25.000 FPS
Color space                              : YUV
Chroma subsampling                       : 4:2:0
Bit depth                                : 8 bits
Scan type                                : Progressive
Bits/(Pixel*Frame)                       : 0.116
Stream size                              : 702 MiB (83%)

Audio
ID                                       : 2
Format                                   : AAC
Format/Info                              : Advanced Audio Codec
Format profile                           : LC
Codec ID                                 : 40
Duration                                 : 2 h 37 min
Bit rate mode                            : Variable
Bit rate                                 : 128 kb/s
Maximum bit rate                         : 132 kb/s
Channel(s)                               : 2 channels
Channel positions                        : Front: L R
Sampling rate                            : 48.0 kHz
Stream size                              : 144 MiB (17%)

Thumbnail




Category:Movies > Bollywood
Lang:Hindi
Total Size:850.18 MB
Info Hash:635cf778f0c74ace27dfe6e0e382b06c91d269b4
Added By:Pherarim
Date Added:02-08-2017 01:24:20
Views:3,085
Hits:671

Download Torrent

Ratings:Not Yet Rated (Log in to rate it)


Tracker:
udp://9.rarbg.me:2710/announce


File List: 


Comments

<< Previous      Next >>
1 - 2

[Report] Posted: 02-08-2017 at 05:23:34
19747447



Uploaded: 0.00 B
Downloaded: 0.00 B
Ratio: ---

Thanks

[Report] Posted: 23-09-2017 at 12:21:04
sweetrehan



Uploaded: 0.00 B
Downloaded: 0.00 B
Ratio: ---

plz  seed this ......... :(  :(

1 - 2
<< Previous      Next >>


Powered by 10 Hamsters v2-svn -|- Page Generated In 1.262004 secs.
-|- RSS Feed -|- Feed Info
Theme By: Nikkbu