Filme 2017 | Filme 2015 | Filme 2016
[Login] or [Signup]
Login
Username:
Password:
[Signup]
[Recover Account]


Poll


You must be logged in to view polls



Torrent Details For "Devdas 2002 Hindi 720p Untouched WEB-DL x264 AAC - Hon3y"

Devdas 2002 Hindi 720p Untouched WEB-DL x264 AAC - Hon3y

Download this torrent | Magnet Download
Health:
Seeds: 0
Leechers: 17
Completed: 26 
Last Checked: 11-10-2017 17:35:18
External Torrent
Update Stats
Download Magnet


Poster


Watch-Free-HD     Download

Details
Name:Devdas 2002 Hindi 720p Untouched WEB-DL x264 AAC - Hon3y
Description:
Devdas 2002 Hindi 720p Untouched WEB-DL x264 AAC - Hon3y.mkv
Format                      : Matroska
Format version              : Version 4 / Version 2
File size                   : 4.08 GiB
Duration                    : 3 h 3 min
Overall bit rate            : 3 190 kb/s
Movie name                  : Devdas 2002 -Hon3y


Video
ID                          : 1
Format                      : AVC
Format/Info                 : Advanced Video Codec
Format profile              : [email protected]
Format settings, CABAC      : Yes
Format settings, ReFrames   : 4 frames
Codec ID                    : V_MPEG4/ISO/AVC
Duration                    : 3 h 3 min
Bit rate                    : 3 014 kb/s
Width                       : 1 280 pixels
Height                      : 720 pixels
Display aspect ratio        : 16:9
Frame rate mode             : Constant
Frame rate                  : 24.000 FPS


Audio
ID                          : 2
Format                      : AAC
Format/Info                 : Advanced Audio Codec
Format profile              : LC
Codec ID                    : A_AAC
Duration                    : 3 h 3 min
Bit rate                    : 192 kb/s
Channel(s)                  : 2 channels
Channel positions           : Front: L R
Sampling rate               : 48.0 kHz
Frame rate                  : 46.875 FPS (1024 spf)
Compression mode            : Lossy
Delay relative to video     : -43 ms
Stream size                 : 254 MiB (6%)
Language                    : Hindi
Default                     : Yes
Forced                      : No

Text
ID                          : 3
Format                      : UTF-8
Codec ID                    : S_TEXT/UTF8
Codec ID/Info               : UTF-8 Plain Text
Duration                    : 2 h 59 min
Bit rate                    : 49 b/s
Count of elements           : 1798
Stream size                 : 65.7 KiB (0%)
Language                    : English
Default                     : Yes
Forced                      : No


 
Category:Movies > Bollywood
Lang:Hindi
Total Size:4.08 GB
Info Hash:5757057a0bd47cfad4fd5e138eec120a47c5d4f0
Added By:Hon3y
Date Added:25-07-2017 08:24:28
Views:610
Hits:235

Download Torrent

Ratings:Not Yet Rated (Log in to rate it)


Tracker:
udp://tracker.coppersurfer.tk:6969/announce


File List: 


Comments

No comments still posted

Powered by 10 Hamsters v2-svn -|- Page Generated In 0.532962 secs.
-|- RSS Feed -|- Feed Info
Theme By: Nikkbu