Antonia Ribero | Timothy Eulich | Richard Gross
[Login] or [Signup]
Login
Username:
Password:
[Signup]
[Recover Account]


Poll


You must be logged in to view polls



Torrent Details For "Tales.S01E03.720p.HDTV.x264-W4F [HDSector]"

Tales.S01E03.720p.HDTV.x264-W4F [HDSector]

Download this torrent | Magnet Download
Health:
Seeds: 0
Leechers: 58
Completed: 74 
Last Checked: 19-10-2017 18:52:26
External Torrent
Update Stats
Download Magnet


Poster


iMDB
Imdb Picture Title: Tales
Year: 2017
Runtime: 60 minutes
Votes: 143
Rating: 6.3/10
Language: English
Country: USA
All Genres: Drama
Plot Outline: Tales, a scripted anthology series of song stories weaving classic and current hip-hop songs into visually stunning narratives.
Tagline: Hip-hop. Money. Fame. Deception. Murder.
Director: Benny Boom
Irv Gotti
Tasha Smith
Jessy Terrero
Erik White
Writing By: Irv Gotti,Joy Kecken,Yule Caise,Marcus J. Guillory,Denise Harkavy,Sherman Payne,
Produced By: Darien Baldwin,John Bryant,Les Franck,Irv Gotti,Darcell Lawrence,Sonny Lorenzo,Keith Neal,Constance Orlando,Ron Robinson,Paul Hall,James Watson,Joy Kecken,Debra Lee,Debra Lee,Yule Caise,James Watson,Debra Lee,
Music: Irv Gotti Chink Santana
Plot:

Tales, a scripted anthology series of song stories weaving classic and current hip-hop songs into visually stunning narratives.

- Written by BET
Cast:
David Dunston as Club Security
Jessica Parker Kennedy as Unique
Woody McClain as Slim
J. Alphonse Nicholson as Ricky
Irv Gotti as Irv Gotti
Milli M. as News Reporter
Jasmine Ahnie as Club Patron
Michael David Yuhl as Police Officer
Bre-z as Ty
Jennifer Freeman as Ashley


Watch-Free-HD     Download

Details
Name:Tales.S01E03.720p.HDTV.x264-W4F [HDSector]
Description:
Video
ID                                       : 1
Format                                   : AVC
Format/Info                              : Advanced Video Codec
Format profile                           : [email protected]
Format settings, CABAC                   : Yes
Format settings, ReFrames                : 5 frames
Codec ID                                 : V_MPEG4/ISO/AVC
Duration                                 : 40mn 34s
Bit rate                                 : 2 815 Kbps
Width                                    : 1 280 pixels
Height                                   : 720 pixels
Display aspect ratio                     : 16:9
Frame rate mode                          : Constant
Frame rate                               : 23.976 (24000/1001) fps

Audio
ID                                       : 2
Format                                   : AC-3
Format/Info                              : Audio Coding 3
Mode extension                           : CM (complete main)
Format settings, Endianness              : Big
Codec ID                                 : A_AC3
Duration                                 : 40mn 34s
Bit rate mode                            : Constant
Bit rate                                 : 384 Kbps
Channel(s)                               : 6 channels
Channel positions                        : Front: L C R, Side: L R, LFE
Sampling rate                            : 48.0 KHz
Frame rate                               : 31.250 fps (1536 spf)
Compression mode                         : Lossy
Stream size                              : 111 MiB (12%)
Language                                 : English
Default                                  : Yes
Forced                                   : No

Text
ID                                       : 3
Format                                   : UTF-8
Codec ID                                 : S_TEXT/UTF8
Codec ID/Info                            : UTF-8 Plain Text
Duration                                 : 40mn 27s
Bit rate                                 : 111 bps
Count of elements                        : 780
Stream size                              : 33.1 KiB (0%)
Language                                 : English
Default                                  : No
Forced                                   : No


Category:TV > Hollywood
Lang:English  English
Total Size:928.91 MB
Info Hash:35e19918ca733c0172adfac86af33e0db5350777
Added By:SULTAN
Date Added:20-07-2017 17:06:05
Views:31
Hits:18

Download Torrent

Ratings:Not Yet Rated (Log in to rate it)


Tracker:
http://tracker.trackerfix.com:80/announce


File List: 


Comments

No comments still posted

Powered by 10 Hamsters v2-svn -|- Page Generated In 0.084551 secs.
-|- RSS Feed -|- Feed Info
Theme By: Nikkbu