Shiki Episode 20.5 OVA English Dubbed | Shiki Episode 21.5 OVA English Dubbed | Shin Cutey Honey Episode 1 English Dubbed
[Login] or [Signup]
Login
Username:
Password:
[Signup]
[Recover Account]


Poll


You must be logged in to view polls



Torrent Details For "Mumbai (2017) Hindi Dubbed HDTVRIP x264 900MB - MovCr Exclusive"

Mumbai (2017) Hindi Dubbed HDTVRIP x264 900MB - MovCr Exclusive

Download this torrent | Magnet Download
Health:
Seeds: 740
Leechers: 705
Completed: 1,027 
Last Checked: 14-01-2018 10:55:42
External Torrent
Update Stats
Download Magnet


Poster


Watch-Free-HD     Download

Details
Name:Mumbai (2017) Hindi Dubbed HDTVRIP x264 900MB - MovCr Exclusive
Description:
Mumbai (2017) Hindi Dubbed HDTVRIP x264 900MB - MovCr Exclusive


 
General
Complete name                            : www.movcr.com - Mumbai (2017) Hindi Dubbed HDTVRIP x264 900MB - MovCr Exclusive.mkv
Format                                   : Matroska
Format version                           : Version 4 / Version 2
File size                                : 898 MiB
Duration                                 : 2 h 3 min
Overall bit rate                         : 1 013 kb/s
Movie name                               : www.movcr.com Exclusive
Encoded date                             : UTC 2018-01-13 19:23:52
Writing application                      : mkvmerge v17.0.0 ('Be Ur Friend') 64-bit
Writing library                          : libebml v1.3.5 + libmatroska v1.4.8

Video
ID                                       : 1
Format                                   : AVC
Format/Info                              : Advanced Video Codec
Format profile                           : [email protected]
Format settings                          : CABAC / 4 Ref Frames
Format settings, CABAC                   : Yes
Format settings, RefFrames               : 4 frames
Codec ID                                 : V_MPEG4/ISO/AVC
Duration                                 : 2 h 3 min
Bit rate                                 : 627 kb/s
Width                                    : 480 pixels
Height                                   : 256 pixels
Display aspect ratio                     : 1.85:1
Frame rate mode                          : Constant
Frame rate                               : 29.915 FPS
Color space                              : YUV
Chroma subsampling                       : 4:2:0
Bit depth                                : 8 bits
Scan type                                : Progressive
Bits/(Pixel*Frame)                       : 0.171
Stream size                              : 556 MiB (62%)
Title                                    : www.movcr.com
Writing library                          : x264 core 152 r2851 ba24899
Encoding settings                        : cabac=1 / ref=3 / deblock=1:0:0 / analyse=0x3:0x113 / me=hex / subme=7 / psy=1 / psy_rd=1.00:0.00 / mixed_ref=1 / me_range=16 / chroma_me=1 / trellis=1 / 8x8dct=1 / cqm=0 / deadzone=21,11 / fast_pskip=1 / chroma_qp_offset=-2 / threads=8 / lookahead_threads=1 / sliced_threads=0 / nr=0 / decimate=1 / interlaced=0 / bluray_compat=0 / constrained_intra=0 / bframes=3 / b_pyramid=2 / b_adapt=1 / b_bias=0 / direct=1 / weightb=1 / open_gop=0 / weightp=2 / keyint=299 / keyint_min=29 / scenecut=40 / intra_refresh=0 / rc_lookahead=40 / rc=2pass / mbtree=1 / bitrate=627 / ratetol=1.0 / qcomp=0.60 / qpmin=0 / qpmax=69 / qpstep=4 / cplxblur=20.0 / qblur=0.5 / ip_ratio=1.40 / aq=1:1.00
Default                                  : Yes
Forced                                   : No

Audio
ID                                       : 2
Format                                   : AC-3
Format/Info                              : Audio Coding 3
Codec ID                                 : A_AC3
Duration                                 : 2 h 3 min
Bit rate mode                            : Constant
Bit rate                                 : 384 kb/s
Channel(s)                               : 2 channels
Channel positions                        : Front: L R
Sampling rate                            : 44.1 kHz
Frame rate                               : 28.711 FPS (1536 SPF)
Bit depth                                : 16 bits
Compression mode                         : Lossy
Stream size                              : 340 MiB (38%)
Title                                    : www.movcr.com Exclusive
Language                                 : Hindi
Service kind                             : Complete Main
Default                                  : Yes
Forced                                   : No


[/url]                    
Category:Movies > South Dub
Lang:Hindi
Total Size:897.71 MB
Info Hash:ded0617df7a2097c1a447def0c5bf249f547c559
Added By:MAZE
Date Added:13-01-2018 14:00:26
Views:2,248
Hits:239

Download Torrent

Ratings:Not Yet Rated (Log in to rate it)


Tracker:
udp://tracker.openbittorrent.com:80/announce


File List: 


Comments

No comments still posted

Powered by 10 Hamsters v2-svn -|- Page Generated In 1.749321 secs.
-|- RSS Feed -|- Feed Info
Theme By: Nikkbu