Watch movie | Sally Phillips | Watch movie
[Login] or [Signup]
Login
Username:
Password:
[Signup]
[Recover Account]


Poll


You must be logged in to view polls



Torrent Details For "Haseena Parkar 2017 1080p WEB-HD x264"

Haseena Parkar 2017 1080p WEB-HD x264

Download this torrent | Magnet Download
Health:
Seeds: 1,082
Leechers: 1,027
Completed: 2,744 
Last Checked: 13-01-2018 16:16:04
External Torrent
Update Stats
Download Magnet


Poster
No poster


Watch-Free-HD     Download

Details
Name:Haseena Parkar 2017 1080p WEB-HD x264
Description:

 


General
Format                      : Matroska
Format version              : Version 4 / Version 2
File size                   : 1.49 GiB
Duration                    : 1 h 57 min
Overall bit rate            : 1 815 kb/s

Video
ID                          : 1
Format                      : AVC
Format/Info                 : Advanced Video Codec
Format profile              : [email protected]
Format settings             : CABAC / 4 Ref Frames
Format settings, CABAC      : Yes
Format settings, ReFrames   : 4 frames
Codec ID                    : V_MPEG4/ISO/AVC
Duration                    : 1 h 57 min
Bit rate                    : 1 700 kb/s
Width                       : 1 920 pixels
Height                      : 816 pixels
Display aspect ratio        : 2.35:1
Frame rate mode             : Constant
Frame rate                  : 24.926 FPS
Color space                 : YUV
Chroma subsampling          : 4:2:0
Bit depth                   : 8 bits
Scan type                   : Progressive
Bits/(Pixel*Frame)          : 0.044
Stream size                 : 1.38 GiB (93%)
Writing library             : x264 core 148 r2708 86b7198
Default                     : Yes
Forced                      : No

Audio
ID                          : 2
Format                      : AAC
Format/Info                 : Advanced Audio Codec
Format profile              : LC
Codec ID                    : A_AAC-2
Duration                    : 1 h 57 min
Bit rate                    : 128 kb/s
Channel(s)                  : 2 channels
Channel positions           : Front: L R
Sampling rate               : 44.1 kHz
Frame rate                  : 43.066 FPS (1024 SPF)
Compression mode            : Lossy
Stream size                 : 107 MiB (7%)
Language                    : Hindi
Default                     : Yes
Forced                      : No




 http://pichub.site/image/c3KZ
 http://pichub.site/image/csSD
 http://pichub.site/image/cPUT
 http://pichub.site/image/c5b0
 http://pichub.site/image/cpiy
 http://pichub.site/image/coJp

Category:Movies > Bollywood
Lang:Hindi
Total Size:1.49 GB
Info Hash:a457f2e445d08394f067128eaf48ee589e28828a
Added By:Freaky
Date Added:12-01-2018 14:45:58
Views:837
Hits:185

Download Torrent

Ratings:Not Yet Rated (Log in to rate it)


Tracker:
http://ipv4.tracker.harry.lu/announce

This Torrent also has backup trackers
URLSeedersLeechersCompleted
http://ipv4.tracker.harry.lu/announce110123545
http://ipv4.tracker.harry.lu:80/announce110123545
http://open.kickasstracker.com/announce1191310
http://open.kickasstracker.com:443/announce1191310
http://82.209.230.66/announce000
http://163.172.180.68/announce110123545


File List: 


Comments

No comments still posted

Powered by 10 Hamsters v2-svn -|- Page Generated In 0.047982 secs.
-|- RSS Feed -|- Feed Info
Theme By: Nikkbu