Ah! My Goddess | Ah! My Goddess - Flights of Fancy (Dub) | Ah! My Goddess - Flights of Fancy Specials (Dub)
[Login] or [Signup]
Login
Username:
Password:
[Signup]
[Recover Account]


Poll


You must be logged in to view polls



Torrent Details For "Break Night 2017 720p BluRay x264 AAC"

Break Night 2017 720p BluRay x264 AAC

Download this torrent | Magnet Download
Health:
Seeds: 363
Leechers: 384
Completed: 526 
Last Checked: 12-01-2018 18:16:16
External Torrent
Update Stats
Download Magnet


Poster
No poster


Watch-Free-HD     Download

Details
Name:Break Night 2017 720p BluRay x264 AAC
Description:

 

General
Format                      : Matroska
Format version              : Version 4 / Version 2
File size                   : 841 MiB
Duration                    : 1 h 37 min
Overall bit rate            : 1 206 kb/s

Video
ID                          : 1
Format                      : AVC
Format/Info                 : Advanced Video Codec
Format profile              : [email protected]
Format settings             : CABAC / 4 Ref Frames
Format settings, CABAC      : Yes
Format settings, ReFrames   : 4 frames
Codec ID                    : V_MPEG4/ISO/AVC
Duration                    : 1 h 37 min
Bit rate                    : 1 100 kb/s
Width                       : 1 280 pixels
Height                      : 544 pixels
Display aspect ratio        : 2.35:1
Frame rate mode             : Constant
Frame rate                  : 23.976 (24000/1001) FPS
Color space                 : YUV
Chroma subsampling          : 4:2:0
Bit depth                   : 8 bits
Scan type                   : Progressive
Bits/(Pixel*Frame)          : 0.066
Stream size                 : 750 MiB (89%)
Writing library             : x264 core 148 r2708 86b7198
Default                     : Yes
Forced                      : No

Audio
ID                          : 2
Format                      : AAC
Format/Info                 : Advanced Audio Codec
Format profile              : LC
Codec ID                    : A_AAC-2
Duration                    : 1 h 37 min
Bit rate                    : 128 kb/s
Channel(s)                  : 2 channels
Channel positions           : Front: L R
Sampling rate               : 44.1 kHz
Frame rate                  : 43.066 FPS (1024 SPF)
Compression mode            : Lossy
Stream size                 : 89.2 MiB (11%)
Language                    : English
Default                     : Yes
Forced                      : No



 http://pichub.site/image/ckW5
 http://pichub.site/image/cyVh
 http://pichub.site/image/ch1r
 http://pichub.site/image/cCNj
 http://pichub.site/image/ctRk
 http://pichub.site/image/czBQ

Category:Movies > 720P Bluray
Lang:English  English
Total Size:840.80 MB
Info Hash:520e3f0959feb955a20125f5e390e691b24dff08
Added By:Freaky
Date Added:12-01-2018 10:34:04
Views:198
Hits:26

Download Torrent

Ratings:Not Yet Rated (Log in to rate it)


Tracker:
http://ipv4.tracker.harry.lu/announce

This Torrent also has backup trackers
URLSeedersLeechersCompleted
http://ipv4.tracker.harry.lu/announce354198
http://ipv4.tracker.harry.lu:80/announce354198
http://open.kickasstracker.com/announce40460
http://open.kickasstracker.com:443/announce40460
http://82.209.230.66/announce12113
http://163.172.180.68/announce354198


File List: 


Comments

No comments still posted

Powered by 10 Hamsters v2-svn -|- Page Generated In 0.031753 secs.
-|- RSS Feed -|- Feed Info
Theme By: Nikkbu