James & Mike Mondays | Jamestown | Jamie and Jimmy's Friday Night Feast
[Login] or [Signup]
Login
Username:
Password:
[Signup]
[Recover Account]


Poll


You must be logged in to view polls



Torrent Details For "Haseena Parkar 2017 720p WEB-HD x264 AAC"

Haseena Parkar 2017 720p WEB-HD x264 AAC

Download this torrent | Magnet Download
Health:
Seeds: 1,396
Leechers: 990
Completed: 7,829 
Last Checked: 13-01-2018 11:51:50
External Torrent
Update Stats
Download Magnet


Poster
No poster


Watch-Free-HD     Download

Details
Name:Haseena Parkar 2017 720p WEB-HD x264 AAC
Description:

 

General
Format                      : Matroska
Format version              : Version 4 / Version 2
File size                   : 860 MiB
Duration                    : 1 h 57 min
Overall bit rate            : 1 022 kb/s

Video
ID                          : 1
Format                      : AVC
Format/Info                 : Advanced Video Codec
Format profile              : [email protected]
Format settings             : CABAC / 4 Ref Frames
Format settings, CABAC      : Yes
Format settings, ReFrames   : 4 frames
Codec ID                    : V_MPEG4/ISO/AVC
Duration                    : 1 h 57 min
Bit rate                    : 900 kb/s
Width                       : 1 280 pixels
Height                      : 544 pixels
Display aspect ratio        : 2.35:1
Frame rate mode             : Constant
Frame rate                  : 24.926 FPS
Color space                 : YUV
Chroma subsampling          : 4:2:0
Bit depth                   : 8 bits
Scan type                   : Progressive
Bits/(Pixel*Frame)          : 0.052
Stream size                 : 751 MiB (87%)
Writing library             : x264 core 148 r2708 86b7198
Default                     : Yes
Forced                      : No

Audio
ID                          : 2
Format                      : AAC
Format/Info                 : Advanced Audio Codec
Format profile              : LC
Codec ID                    : A_AAC-2
Duration                    : 1 h 57 min
Bit rate                    : 128 kb/s
Channel(s)                  : 2 channels
Channel positions           : Front: L R
Sampling rate               : 44.1 kHz
Frame rate                  : 43.066 FPS (1024 SPF)
Compression mode            : Lossy
Stream size                 : 107 MiB (12%)
Language                    : Hindi
Default                     : Yes
Forced                      : No




 http://pichub.site/image/VT7B
 http://pichub.site/image/Vj6p
 http://pichub.site/image/VeB4
 http://pichub.site/image/c4fy
 http://pichub.site/image/cfCb
 http://pichub.site/image/cMWV

Category:Movies > Bollywood
Lang:Hindi
Total Size:859.82 MB
Info Hash:8e927853eae9b1db0aa1fee943e2ea5ef87ff81b
Added By:Freaky
Date Added:12-01-2018 10:11:37
Views:901
Hits:234

Download Torrent

Ratings:Not Yet Rated (Log in to rate it)


Tracker:
http://ipv4.tracker.harry.lu/announce

This Torrent also has backup trackers
URLSeedersLeechersCompleted
http://ipv4.tracker.harry.lu/announce3232331,977
http://ipv4.tracker.harry.lu:80/announce3232331,977
http://tracker.electro-torrent.pl/announce000
http://tracker.electro-torrent.pl:80/announce000
http://retracker.mgts.by:80/announce115267134
http://pt.lax.mx:80/announce000
http://tracker.torrentyorg.pl:80/announce121040
http://163.172.180.68/announce3222301,977
http://82.209.230.66/announce10520369
http://107.174.238.55:80/announce000
http://t.nyaatracker.com/announce9022956
http://t.nyaatracker.com:80/announce7790


File List: 


Comments

No comments still posted

Powered by 10 Hamsters v2-svn -|- Page Generated In 0.044698 secs.
-|- RSS Feed -|- Feed Info
Theme By: Nikkbu