Karl Swenson | Trey Parker | Matt Stone
[Login] or [Signup]
Login
Username:
Password:
[Signup]
[Recover Account]


Poll


You must be logged in to view polls



Torrent Details For "Sky High (2005) 720p Bluray x264 ESubs-[Multi Auds]-[Telugu + Tam + Hin + Eng] - 1GB- Movcr"

Sky High (2005) 720p Bluray x264 ESubs-[Multi Auds]-[Telugu + Tam + Hin + Eng] - 1GB- Movcr

Download this torrent | Magnet Download
Health:
Seeds: 0
Leechers: 0
Completed:
Last Checked: 11-01-2018 15:46:42
External Torrent
Update Stats
Download Magnet


Poster


iMDB
Imdb Picture Title: Sky High
Year: 2005
Runtime: 100 minutes
Votes: 67306
Rating: 6.2/10
Language: English, Cantonese
Country: USA
All Genres: Adventure, Comedy, Family, Sci-Fi
Plot Outline: Set in an era where superheroes are commonly known and accepted, young William Stronghold, the son of the Commander and Jetstream, tries to find a balance between being a normal teenager and an extraordinary being.
Tagline: Saving The World... One Homework Assignment At A Time.
Director: Mike Mitchell
Writing By: Paul Hernandez,Robert Schooley,Mark McCorkle,
Produced By: Andrew Gunn,Mario Iscovich,Ann Marie Sanderlin,
Music: Michael Giacchino
Cast:
Michael Angarano as Will Stronghold
Kurt Russell as Steve Stronghold / The Commander
Kelly Preston as Josie Stronghold / Jetstream
Danielle Panabaker as Layla
Christopher Wynne as News Anchor
Kevin Heffernan as Ron Wilson, Bus Driver
Dee Jay Daniels as Ethan
Kelly Vitz as Magenta
Loren Berman as Little Larry
Nicholas Braun as Zach
Trailers:
Sky High
The Producers


Watch-Free-HD     Download

Details
Name:Sky High (2005) 720p Bluray x264 ESubs-[Multi Auds]-[Telugu + Tam + Hin + Eng] - 1GB- Movcr
Description:
Sky High (2005) 720p Bluray x264 ESubs-[Multi Auds]-[Telugu + Tam + Hin + Eng] - 1GB- Movcr

 http://www.imdb.com/title/tt0405325/

 
General
Complete name                            : www.movcr.com - Sky High (2005) 720p Bluray x264 ESubs-[Multi Auds]-[Telugu + Tam + Hin + Eng] - 1GB- Movcr.mkv
Format                                   : Matroska
Format version                           : Version 4 / Version 2
File size                                : 1 014 MiB
Duration                                 : 1 h 39 min
Overall bit rate mode                    : Variable
Overall bit rate                         : 1 425 kb/s
Movie name                               : www.movcr.com
Encoded date                             : UTC 2018-01-12 05:16:57
Writing application                      : mkvmerge v17.0.0 ('Be Ur Friend') 64-bit
Writing library                          : libebml v1.3.5 + libmatroska v1.4.8

Video
ID                                       : 1
Format                                   : AVC
Format/Info                              : Advanced Video Codec
Format profile                           : [email protected]
Format settings                          : CABAC / 12 Ref Frames
Format settings, CABAC                   : Yes
Format settings, RefFrames               : 12 frames
Codec ID                                 : V_MPEG4/ISO/AVC
Duration                                 : 1 h 39 min
Bit rate                                 : 959 kb/s
Width                                    : 1 280 pixels
Height                                   : 528 pixels
Display aspect ratio                     : 2.40:1
Frame rate mode                          : Constant
Frame rate                               : 23.976 (24000/1001) FPS
Color space                              : YUV
Chroma subsampling                       : 4:2:0
Bit depth                                : 8 bits
Scan type                                : Progressive
Bits/(Pixel*Frame)                       : 0.059
Stream size                              : 682 MiB (67%)
Title                                    : www.movcr.com
Writing library                          : x264 core 125 r2200 999b753
Encoding settings                        : cabac=1 / ref=12 / deblock=1:-1:-1 / analyse=0x3:0x133 / me=umh / subme=9 / psy=1 / psy_rd=1.00:0.15 / mixed_ref=1 / me_range=16 / chroma_me=1 / trellis=2 / 8x8dct=1 / cqm=0 / deadzone=21,11 / fast_pskip=1 / chroma_qp_offset=-3 / threads=12 / lookahead_threads=2 / sliced_threads=0 / nr=0 / decimate=1 / interlaced=0 / bluray_compat=0 / constrained_intra=0 / bframes=8 / b_pyramid=2 / b_adapt=2 / b_bias=0 / direct=3 / weightb=1 / open_gop=0 / weightp=2 / keyint=240 / keyint_min=23 / scenecut=40 / intra_refresh=0 / rc_lookahead=60 / rc=2pass / mbtree=1 / bitrate=959 / ratetol=1.0 / qcomp=0.60 / qpmin=10 / qpmax=51 / qpstep=4 / cplxblur=20.0 / qblur=0.5 / ip_ratio=1.40 / aq=1:1.00
Language                                 : English
Default                                  : Yes
Forced                                   : No

Audio #1
ID                                       : 2
Format                                   : MPEG Audio
Format version                           : Version 1
Format profile                           : Layer 3
Format settings                          : Joint stereo / MS Stereo
Codec ID                                 : A_MPEG/L3
Codec ID/Hint                            : MP3
Duration                                 : 1 h 39 min
Bit rate mode                            : Variable
Bit rate                                 : 128 kb/s
Channel(s)                               : 2 channels
Sampling rate                            : 44.1 kHz
Frame rate                               : 38.281 FPS (1152 SPF)
Compression mode                         : Lossy
Stream size                              : 93.1 MiB (9%)
Title                                    : www.movcr.com
Writing library                          : LAME3.99r
Encoding settings                        : -m j -V 4 -q 3 -lowpass 17 --abr 128
Language                                 : Telugu
Default                                  : Yes
Forced                                   : No

Audio #2
ID                                       : 3
Format                                   : MPEG Audio
Format version                           : Version 1
Format profile                           : Layer 3
Format settings                          : Joint stereo / MS Stereo
Codec ID                                 : A_MPEG/L3
Codec ID/Hint                            : MP3
Duration                                 : 1 h 39 min
Bit rate mode                            : Variable
Bit rate                                 : 120 kb/s
Nominal bit rate                         : 128 kb/s
Channel(s)                               : 2 channels
Sampling rate                            : 44.1 kHz
Frame rate                               : 38.281 FPS (1152 SPF)
Compression mode                         : Lossy
Stream size                              : 85.1 MiB (8%)
Title                                    : www.movcr.com
Writing library                          : LAME3.99r
Encoding settings                        : -m j -V 4 -q 3 -lowpass 17 --abr 128
Language                                 : Tamil
Default                                  : No
Forced                                   : No

Audio #3
ID                                       : 4
Format                                   : MPEG Audio
Format version                           : Version 1
Format profile                           : Layer 3
Format settings                          : Joint stereo / MS Stereo
Codec ID                                 : A_MPEG/L3
Codec ID/Hint                            : MP3
Duration                                 : 1 h 39 min
Bit rate mode                            : Variable
Bit rate                                 : 119 kb/s
Nominal bit rate                         : 128 kb/s
Channel(s)                               : 2 channels
Sampling rate                            : 44.1 kHz
Frame rate                               : 38.281 FPS (1152 SPF)
Compression mode                         : Lossy
Stream size                              : 84.9 MiB (8%)
Title                                    : www.movcr.com
Writing library                          : LAME3.99r
Encoding settings                        : -m j -V 4 -q 3 -lowpass 17 --abr 128
Language                                 : Hindi
Default                                  : No
Forced                                   : No

Audio #4
ID                                       : 5
Format                                   : AAC
Format/Info                              : Advanced Audio Codec
Format profile                           : LC
Codec ID                                 : A_AAC-2
Duration                                 : 1 h 39 min
Bit rate                                 : 92.0 kb/s
Channel(s)                               : 2 channels
Channel positions                        : Front: L R
Sampling rate                            : 48.0 kHz
Frame rate                               : 46.875 FPS (1024 SPF)
Compression mode                         : Lossy
Stream size                              : 65.5 MiB (6%)
Title                                    : www.movcr.com
Language                                 : English
Default                                  : No
Forced                                   : No

Text
ID                                       : 6
Format                                   : UTF-8
Codec ID                                 : S_TEXT/UTF8
Codec ID/Info                            : UTF-8 Plain Text
Duration                                 : 1 h 34 min
Bit rate                                 : 76 b/s
Count of elements                        : 1609
Stream size                              : 53.3 KiB (0%)
Title                                    : www.movcr.com
Language                                 : English
Default                                  : Yes
Forced                                   : No


 
 
 
 
 
 
 
 
Category:Movies > 720P Bluray
Lang:Telugu
Total Size:1,013.91 MB
Info Hash:1a226b082f569f1b326e4859d25e3b81e1be233b
Added By:MAZE
Date Added:11-01-2018 15:46:42
Views:211
Hits:19

Download Torrent

Ratings:Not Yet Rated (Log in to rate it)


Tracker:
udp://tracker.openbittorrent.com:80/announce


File List: 


Comments

No comments still posted

Powered by 10 Hamsters v2-svn -|- Page Generated In 1.503576 secs.
-|- RSS Feed -|- Feed Info
Theme By: Nikkbu