The Biggest Loser | The Blacklist: Redemption | The Bletchley Circle
[Login] or [Signup]
Login
Username:
Password:
[Signup]
[Recover Account]


Poll


You must be logged in to view polls



Torrent Details For "Chasing Great 2016 720p BluRay x264"

Chasing Great 2016 720p BluRay x264

Download this torrent | Magnet Download
Health:
Seeds: 31
Leechers: 54
Completed: 36 
Last Checked: 11-01-2018 11:00:16
External Torrent
Update Stats
Download Magnet


Poster
No poster


Watch-Free-HD     Download

Details
Name:Chasing Great 2016 720p BluRay x264
Description:

 



General
Format                      : Matroska
Format version              : Version 4 / Version 2
File size                   : 906 MiB
Duration                    : 1 h 45 min
Overall bit rate            : 1 206 kb/s

Video
ID                          : 1
Format                      : AVC
Format/Info                 : Advanced Video Codec
Format profile              : [email protected]
Format settings             : CABAC / 4 Ref Frames
Format settings, CABAC      : Yes
Format settings, ReFrames   : 4 frames
Codec ID                    : V_MPEG4/ISO/AVC
Duration                    : 1 h 45 min
Bit rate                    : 1 100 kb/s
Width                       : 1 280 pixels
Height                      : 536 pixels
Display aspect ratio        : 2.40:1
Frame rate mode             : Constant
Frame rate                  : 23.976 (24000/1001) FPS
Color space                 : YUV
Chroma subsampling          : 4:2:0
Bit depth                   : 8 bits
Scan type                   : Progressive
Bits/(Pixel*Frame)          : 0.067
Stream size                 : 808 MiB (89%)
Writing library             : x264 core 148 r2708 86b7198
Default                     : Yes
Forced                      : No

Audio
ID                          : 2
Format                      : AAC
Format/Info                 : Advanced Audio Codec
Format profile              : LC
Codec ID                    : A_AAC-2
Duration                    : 1 h 45 min
Bit rate                    : 128 kb/s
Channel(s)                  : 2 channels
Channel positions           : Front: L R
Sampling rate               : 44.1 kHz
Frame rate                  : 43.066 FPS (1024 SPF)
Compression mode            : Lossy
Stream size                 : 96.2 MiB (11%)
Language                    : English
Default                     : Yes
Forced                      : No




 http://pichub.site/image/Vd0s
 http://pichub.site/image/VcdY
 http://pichub.site/image/Vku6
 http://pichub.site/image/Vw3t
 http://pichub.site/image/VCI4
 http://pichub.site/image/Vh8p

Category:Movies > 720P Bluray
Lang:English  English
Total Size:906.27 MB
Info Hash:b08ab042d3f10834ae3485bb8379d12cff29aca9
Added By:Freaky
Date Added:11-01-2018 10:59:51
Views:123
Hits:9

Download Torrent

Ratings:Not Yet Rated (Log in to rate it)


Tracker:
udp://tracker.ilibr.org:6969/announce


File List: 


Comments

No comments still posted

Powered by 10 Hamsters v2-svn -|- Page Generated In 0.030669 secs.
-|- RSS Feed -|- Feed Info
Theme By: Nikkbu