Veronika Khayla | Xavier Giannoli | Yannick Lorté
[Login] or [Signup]
Login
Username:
Password:
[Signup]
[Recover Account]


Poll


You must be logged in to view polls



Torrent Details For "The Vampire Diaries Complete Series 1080p H265 HEVC BLURAY Esub [KayTee]"

The Vampire Diaries Complete Series 1080p H265 HEVC BLURAY Esub [KayTee]

Download this torrent | Magnet Download
Health:
Seeds: 18
Leechers: 34
Completed: 17 
Last Checked: 19-01-2018 05:36:33
External Torrent
Update Stats
Download Magnet


Poster


iMDB
Imdb Picture Title: The Vampire Diaries
Year: 2009
Runtime: 43 minutes
Votes: 244001
Rating: 7.8/10
Language: English
Country: USA
All Genres: Drama, Fantasy, Horror, Mystery, Romance, Thriller
Plot Outline: A young teen struggles to make a decision between two vampire brothers and their supernatural lives. Soon after she discovers the truth her whole world turns upside down.
Tagline: Give in to your appetite
Director: Chris Grismer
Joshua Butler
Michael A. Allowitz
Marcos Siega
Pascal Verschooris
Kellie Cyrus
J. Miller Tobin
John Behring
Jeffrey G. Hunt
Rob Hardy
Lance Anderson
Leslie Libman
Paul Wesley
John Dahl
Wendey Stanzler
Jesse Warn
Darren Genet
David Von Ancken
Liz Friedlander
Garreth Stover
Julie Plec
Geoff Shotz
Ian Somerhalder
Kevin Bray
Tony Solomons
Mike Karasick
Rick Bota
Ernest R. Dickerson
Guy Ferland
David Barrett
Charles Beeson
Ralph Hemecker
Patrick R. Norris
Elizabeth Allen Rosenbaum
Dennis Smith
Jeff Woolnough
David Jackson
Michael Katleman
Paul M. Sommers
Darnell Martin
Brad Turner
Deborah Chow
Rashaad Ernesto Green
Tanya Hamilton
James L. Thompson III
Carol Banker
Writing By: Julie Plec,Kevin Williamson,L.J. Smith,Neil Reynolds,Caroline Dries,Charlie Charbonneau,Holly Brix,Brian Young,Elisabeth Finch,Matthew D'Ambrosio,Rebecca Sonnenshine,Brett Matthews,Melinda Hsu Taylor,Michael Narducci,Shukree Tilghman,Chad Fiveash,James Patrick Stoteraux,Andrew Chambliss,Alan McElroy,Nina Fiore,John Hererra,Barbie Kligman,Evan Bleiweiss,Mike Daniels,Jose Molina,Bryan Oh,Turi Meyer,Al Septien,Sean Reycraft,Bryan M. Holdman,Andrew Kreisberg,Gabrielle G. Stanton,Elizabeth Craft,Sarah Fain,Sonny Postiglione,Penny Cox,Celine Geiger,Brett Conrad,Nick Wauters,Michael J. Cinquemani,Daphne Miles,Melissa Marlette,Jen Vestuto,
Produced By: Julie Plec,Kevin Williamson,Leslie Morgenstein,Pascal Verschooris,Caroline Dries,James L. Thompson III,Trish 'The Dish' Stanard,Brett Matthews,Brian Young,Melinda Hsu Taylor,Bob Levy,Rebecca Sonnenshine,Kellie Cyrus,Chad Fiveash,James Patrick Stoteraux,Tony Solomons,Michael Narducci,Lance Anderson,Marcos Siega,Turi Meyer,Al Septien,Chris Grismer,Jose Molina,Mike Daniels,Aida Rodgers,Sonny Postiglione,Barbie Kligman,John Behring,Nantale Corbett,Elizabeth Craft,Sarah Fain,Ian Somerhalder,Paul Wesley,John Shiban,J. Miller Tobin,Sean Reycraft,Gabrielle G. Stanton,Ani Arutyunyan,Bryan Oh,Nick Wauters,Andrew Kreisberg,Neil Reynolds,Lauren Petzke,Michael A. Allowitz,Brian Young,Diane Ademu-John,Gina Girolamo,Matthew Hastings,Ron McLeod,
Music: Mike Suby
Cast:
Paul Wesley as Stefan Salvatore 171 episodes, 2009-2017
Ian Somerhalder as Damon Salvatore 171 episodes, 2009-2017
Kat Graham as Bonnie Bennett 171 episodes, 2009-2017
Candice King as Caroline Forbes 171 episodes, 2009-2017
Zach Roerig as Matt Donovan 171 episodes, 2009-2017
Michael Trevino as Tyler Lockwood 144 episodes, 2009-2017
Nina Dobrev as Elena Gilbert 141 episodes, 2009-2017
Steven R. McQueen as Jeremy Gilbert 134 episodes, 2009-2017
Matthew Davis as Alaric Saltzman 123 episodes, 2009-2017
Michael Malarkey as Lorenzo 'Enzo' St. John 72 episodes, 2013-2017
Trailers:
Bite Back
Move On
Comic-Con Trailer
Season 7 Trailer


Watch-Free-HD     Download

Details
Name:The Vampire Diaries Complete Series 1080p H265 HEVC BLURAY Esub [KayTee]
Description:
A young teen struggles to make a decision between two vampire brothers and their supernatural lives. Soon after she discovers the truth her whole world turns upside down.

Media Info
Format : Matroska
Format version : Version 4 / Version 2
File size : 289 MiB
Duration : Variable
Overall bit rate : 947 kb/s
Encoded date : UTC 2018-01-10 12:25:42
Writing application : mkvmerge v19.0.0 ('Brave Captain') 64-bit
Writing library : libebml v1.3.5 + libmatroska v1.4.8

Video
ID : 1
Format : HEVC
Format/Info : High Efficiency Video Coding
Format profile : [email protected]@Main
Codec ID : V_MPEGH/ISO/HEVC
Duration : 42 min 29 s
Bit rate : 789 kb/s
Width : 1 920 pixels
Height : 1 080 pixels
Display aspect ratio : 16:9
Frame rate mode : Constant
Frame rate : 23.976 (24000/1001) FPS
Bit depth : 8 bits

Audio
ID : 2
Format : Opus
Codec ID : A_OPUS
Duration : Variable
Bit rate : 158 kb/s
Channel(s) : 6 channels
Channel positions : Front: L C R, Rear: L R, LFE
Sampling rate : 48.0 kHz
Frame rate : 50.000 FPS (960 SPF)
Compression mode : Lossy
Stream size : 48.2 MiB (17%)
Language : English
Default : Yes
Forced : No

Text
ID : 3
Format : UTF-8
Codec ID : S_TEXT/UTF8
Codec ID/Info : UTF-8 Plain Text
Stream size : 23.9 KiB (0%)
Language : English
Default : Yes
Forced : Yes

Please seed the torrent as much as possible.
If you like the content then buy the content.
Category:TV > WEB-HD
Lang:English  English
Total Size:45.60 GB
Info Hash:b28f63598dcac0bf0f5f58f641860f70507f5321
Added By:KayTee
Date Added:10-01-2018 14:14:00
Views:101
Hits:38

Download Torrent

Ratings:Not Yet Rated (Log in to rate it)


Tracker:
udp://tracker.cyberia.is:6969/announce

This Torrent also has backup trackers
URLSeedersLeechersCompleted
http://p4p.arenabg.com:1337/announce140
http://tracker.internetwarriors.net:1337/announce170
http://tracker.opentrackr.org:1337/announce242


File List: 


Comments

<< Previous      Next >>
1 - 1

[Report] Posted: 11-01-2018 at 13:50:23
KayTee



Uploaded: 0.00 B
Downloaded: 0.00 B
Ratio: ---

Please seed it till atleast 20 seeders. It took lot time to make repack

1 - 1
<< Previous      Next >>


Powered by 10 Hamsters v2-svn -|- Page Generated In 0.076413 secs.
-|- RSS Feed -|- Feed Info
Theme By: Nikkbu