Aadhe Adhoore | Studio 4°C | Australia on Trial
[Login] or [Signup]
Login
Username:
Password:
[Signup]
[Recover Account]


Poll


You must be logged in to view polls



Torrent Details For "Scooby-Doo and Batman the Brave and the Bold 2018 1080p WEB-DL DD 5.1 x264"

Scooby-Doo and Batman the Brave and the Bold 2018 1080p WEB-DL DD 5.1 x264

Download this torrent | Magnet Download
Health:
Seeds: 30
Leechers: 192
Completed: 10 
Last Checked: 10-01-2018 07:11:11
External Torrent
Update Stats
Download Magnet


Poster
No poster


Watch-Free-HD     Download

Details
Name:Scooby-Doo and Batman the Brave and the Bold 2018 1080p WEB-DL DD 5.1 x264
Description:

 

General
Format                      : Matroska
Format version              : Version 4 / Version 2
File size                   : 951 MiB
Duration                    : 1 h 15 min
Overall bit rate            : 1 769 kb/s

Video
ID                          : 1
Format                      : AVC
Format/Info                 : Advanced Video Codec
Format profile              : [email protected]
Format settings             : CABAC / 4 Ref Frames
Format settings, CABAC      : Yes
Format settings, ReFrames   : 4 frames
Codec ID                    : V_MPEG4/ISO/AVC
Duration                    : 1 h 15 min
Bit rate                    : 1 500 kb/s
Width                       : 1 912 pixels
Height                      : 1 072 pixels
Display aspect ratio        : 16:9
Frame rate mode             : Constant
Frame rate                  : 23.976 (24000/1001) FPS
Color space                 : YUV
Chroma subsampling          : 4:2:0
Bit depth                   : 8 bits
Scan type                   : Progressive
Bits/(Pixel*Frame)          : 0.031
Stream size                 : 812 MiB (85%)
Writing library             : x264 core 148 r2708 86b7198
Default                     : Yes
Forced                      : No

Audio
ID                          : 2
Format                      : AC-3
Format/Info                 : Audio Coding 3
Codec ID                    : A_AC3
Duration                    : 1 h 15 min
Bit rate mode               : Constant
Bit rate                    : 256 kb/s
Channel(s)                  : 6 channels
Channel positions           : Front: L C R, Side: L R, LFE
Sampling rate               : 48.0 kHz
Frame rate                  : 31.250 FPS (1536 SPF)
Bit depth                   : 16 bits
Compression mode            : Lossy
Stream size                 : 138 MiB (14%)
Language                    : English
Service kind                : Complete Main
Default                     : Yes
Forced                      : No




 
 
 http://pichub.site/image/7Knv
 http://pichub.site/image/7mYd
 http://pichub.site/image/7ut9
 http://pichub.site/image/7G2u


Category:Movies > HDRips
Lang:English  English
Total Size:951.00 MB
Info Hash:b9a73522c0fdf4af808924b147a41d9742b02b22
Added By:Freaky
Date Added:10-01-2018 07:10:46
Views:124
Hits:12

Download Torrent

Ratings:Not Yet Rated (Log in to rate it)


Tracker:
udp://tracker.coppersurfer.tk:6969/announce


File List: 


Comments

No comments still posted

Powered by 10 Hamsters v2-svn -|- Page Generated In 0.003546 secs.
-|- RSS Feed -|- Feed Info
Theme By: Nikkbu