WWE Bottom Line | TNA Greatest Matches | WWE Afterburn
[Login] or [Signup]
Login
Username:
Password:
[Signup]
[Recover Account]


Poll


You must be logged in to view polls



Torrent Details For "Okja (2017) 720p Uncut HDRip x264 ESubs-[Dual Audio]-[Hindi DD2.0 + English] -1GB - MovCr"

Okja (2017) 720p Uncut HDRip x264 ESubs-[Dual Audio]-[Hindi DD2.0 + English] -1GB - MovCr

Download this torrent | Magnet Download
Health:
Seeds: 161
Leechers: 247
Completed: 177 
Last Checked: 10-01-2018 07:58:16
External Torrent
Update Stats
Download Magnet


Poster


iMDB
Imdb Picture Title: Okja
Year: 2017
Runtime: 118 minutes
Votes: 764
Rating: 7.2/10
Language: Korean, English
Country: South Korea, USA
All Genres: Action, Adventure, Drama, Sci-Fi
Plot Outline: Meet Mija, a young girl who risks everything to prevent a powerful, multi-national company from kidnapping her best friend - a massive animal named Okja.
Director: Joon-ho Bong
Writing By: Joon-ho Bong,Joon-ho Bong,Jon Ronson,
Produced By: Joon-ho Bong,Luca Borghese,Dooho Choi,Collin Creighton,Sarah Esberg,Pauline Fischer,Dede Gardner,Lewis Taewan Kim,Woosang Kim,Jeremy Kleiner,Sandro Kopp,Christina Oh,Brad Pitt,Ted Sarandos,Woo-sik Seo,Tilda Swinton,Stan Wlodkowski,
Plot:

For 10 idyllic years, young Mija (An Seo Hyun) has been caretaker and constant companion to Okja-a massive animal and an even bigger friend-at her home in the mountains of South Korea. But that changes when a family-owned multinational conglomerate Mirando Corporation takes Okja for themselves and transports her to New York, where image obsessed and self-promoting CEO Lucy Mirando (Tilda Swinton) has big plans for Mija's dearest friend. With no particular plan but single-minded in intent, Mija sets out on a rescue mission, but her already daunting journey quickly becomes more complicated when she crosses paths with disparate groups of capitalists, demonstrators and consumers, each battling to control the fate of Okja...while all Mija wants to do is bring her friend home. Deftly blending genres, humor, poignancy and drama, Bong Joon Ho (Snowpiercer, The Host) begins with the gentlest of premises-the bond between man and animal-and ultimately creates a distinct and layered vision of the world that addresses the animal inside us all. Okja is a Plan B Entertainment, Lewis Pictures and Kate Street Picture Company production in association with Netflix.

- Written by Netflix

Meet Mija, a young girl who risks everything to prevent a powerful, multi-national company from kidnapping her best friend - a massive animal named Okja.


Cast:
Tilda Swinton as Lucy and Nancy Mirando
Sheena Kamal as Stylist 2007 / 2017
Michael Mitton as Make-up Artist 2007
Colm Hill as Sarcastic British Reporter
Kathryn Kirkpatrick as Epicurean Reporter
Jose Carias as Señor Villacorta
Giancarlo Esposito as Frank Dawson
Jake Gyllenhaal as Johnny Wilcox
Nancy Amelia Bell as Elderly Reporter
Seo-Hyun Ahn as Mija
Trailers:
Trailer #2
Official Trailer
Teaser


Watch-Free-HD     Download

Details
Name:Okja (2017) 720p Uncut HDRip x264 ESubs-[Dual Audio]-[Hindi DD2.0 + English] -1GB - MovCr
Description:
Okja (2017) 720p Uncut HDRip x264 ESubs-[Dual Audio]-[Hindi DD2.0 + English] -1GB - MovCr

 http://www.imdb.com/title/tt3967856/

 

General
Complete name                            :www.movcr.com - Okja (2017) 720p Uncut HDRip x264 ESubs-[Dual Audio]-[Hindi DD2.0 + English] -1GB - MovCr .mkv
Format                                   : Matroska
Format version                           : Version 4 / Version 2
File size                                : 1.09 GiB
Duration                                 : 2 h 1 min
Overall bit rate                         : 1 289 kb/s
Movie name                               : www.movcr.com - Exclusive
Encoded date                             : UTC 2018-01-10 07:34:24
Writing application                      : mkvmerge v17.0.0 ('Be Ur Friend') 64-bit
Writing library                          : libebml v1.3.5 + libmatroska v1.4.8

Video
ID                                       : 1
Format                                   : AVC
Format/Info                              : Advanced Video Codec
Format profile                           : [email protected]
Format settings                          : CABAC / 5 Ref Frames
Format settings, CABAC                   : Yes
Format settings, RefFrames               : 5 frames
Codec ID                                 : V_MPEG4/ISO/AVC
Duration                                 : 2 h 1 min
Bit rate                                 : 1 000 kb/s
Width                                    : 1 280 pixels
Height                                   : 536 pixels
Display aspect ratio                     : 2.40:1
Frame rate mode                          : Constant
Frame rate                               : 24.000 FPS
Color space                              : YUV
Chroma subsampling                       : 4:2:0
Bit depth                                : 8 bits
Scan type                                : Progressive
Bits/(Pixel*Frame)                       : 0.061
Stream size                              : 868 MiB (78%)
Title                                    : www.movcr.com - Exclusive
Writing library                          : x264 core 148 r2708 86b7198
Encoding settings                        : cabac=1 / ref=5 / deblock=1:0:0 / analyse=0x3:0x133 / me=umh / subme=9 / psy=1 / psy_rd=1.00:0.00 / mixed_ref=1 / me_range=16 / chroma_me=1 / trellis=2 / 8x8dct=1 / cqm=0 / deadzone=21,11 / fast_pskip=0 / chroma_qp_offset=-2 / threads=12 / lookahead_threads=1 / sliced_threads=0 / nr=0 / decimate=1 / interlaced=0 / bluray_compat=0 / constrained_intra=0 / bframes=3 / b_pyramid=2 / b_adapt=2 / b_bias=0 / direct=3 / weightb=1 / open_gop=0 / weightp=2 / keyint=240 / keyint_min=24 / scenecut=40 / intra_refresh=0 / rc_lookahead=60 / rc=2pass / mbtree=1 / bitrate=1000 / ratetol=1.0 / qcomp=0.60 / qpmin=0 / qpmax=69 / qpstep=4 / cplxblur=20.0 / qblur=0.5 / vbv_maxrate=62500 / vbv_bufsize=78125 / nal_hrd=none / filler=0 / ip_ratio=1.40 / aq=1:1.00
Default                                  : Yes
Forced                                   : No
Color range                              : Limited
Color primaries                          : BT.709
Transfer characteristics                 : BT.709
Matrix coefficients                      : BT.709

Audio #1
ID                                       : 2
Format                                   : AAC
Format/Info                              : Advanced Audio Codec
Format profile                           : HE-AAC / LC
Format settings                          : Implicit
Codec ID                                 : A_AAC-2
Duration                                 : 2 h 1 min
Bit rate                                 : 96.0 kb/s
Channel(s)                               : 2 channels
Channel positions                        : Front: L R
Sampling rate                            : 48.0 kHz / 24.0 kHz
Frame rate                               : 23.438 FPS (1024 SPF)
Compression mode                         : Lossy
Delay relative to video                  : -21 ms
Stream size                              : 82.2 MiB (7%)
Title                                    : www.movcr.com - Exclusive
Language                                 : Hindi
Default                                  : No
Forced                                   : No

Audio #2
ID                                       : 3
Format                                   : AAC
Format/Info                              : Advanced Audio Codec
Format profile                           : LC
Codec ID                                 : A_AAC-2
Duration                                 : 2 h 1 min
Bit rate                                 : 192 kb/s
Channel(s)                               : 6 channels
Channel positions                        : Front: L C R, Side: L R, LFE
Sampling rate                            : 48.0 kHz
Frame rate                               : 46.875 FPS (1024 SPF)
Compression mode                         : Lossy
Delay relative to video                  : -21 ms
Stream size                              : 166 MiB (15%)
Title                                    : www.movcr.com - Exclusive
Language                                 : English
Default                                  : Yes
Forced                                   : No

Text
ID                                       : 4
Format                                   : UTF-8
Codec ID                                 : S_TEXT/UTF8
Codec ID/Info                            : UTF-8 Plain Text
Duration                                 : 1 h 59 min
Bit rate                                 : 51 b/s
Count of elements                        : 1441
Stream size                              : 45.0 KiB (0%)
Title                                    : www.movcr.com - Exclusive
Language                                 : English
Default                                  : Yes
Forced                                   : No


                       
Category:Movies > South Dub
Lang:Hindi
Total Size:1.09 GB
Info Hash:304f5fef9408e65ed63dc359d0098cf30b286e8b
Added By:MAZE
Date Added:09-01-2018 17:49:30
Views:989
Hits:92

Download Torrent

Ratings:Not Yet Rated (Log in to rate it)


Tracker:
udp://tracker.openbittorrent.com:80/announce


File List: 


Comments

No comments still posted

Powered by 10 Hamsters v2-svn -|- Page Generated In 1.858531 secs.
-|- RSS Feed -|- Feed Info
Theme By: Nikkbu