SWF to exe | acrobat 9.0.0.332 | driver easy 5.5.6
[Login] or [Signup]
Login
Username:
Password:
[Signup]
[Recover Account]


Poll


You must be logged in to view polls



Torrent Details For "Mohabbat Mein Jung (Nanna Ninna Prema Kathe) (2016) Hindi Dubbed 720p HDTVRip x264 750MB - MovC..."

Mohabbat Mein Jung (Nanna Ninna Prema Kathe) (2016) Hindi Dubbed 720p HDTVRip x264 750MB - MovC...

Download this torrent | Magnet Download
Health:
Seeds: 7
Leechers: 1,594
Completed:
Last Checked: 10-01-2018 06:28:50
External Torrent
Update Stats
Download Magnet


Poster


iMDB
Imdb Picture Title: Nanna Ninna Prema Kathe
Year: 2016
Runtime: 141 minutes
Language: Kannada
Country: India
All Genres: Drama, Romance
Tagline: Preethigaagi Neenu...Preethiyade Neenu...Preethitae Neenu...
Director: Jamakhandi Shivu
Writing By: Jamakhandi Shivu,Jamakhandi Shivu,Jamakhandi Shivu,
Produced By: Dhananjay H.,Joker Hanumanthu,Anand S. Nyamagouda,
Music: Jamakhandi Shivu
Cast:
Vijay Raghavendra as
Nidhi Subbaiah as
Thilak Shekar as
Chikkanna as
Sangeetha as
Gururaj Hoskote as
Sudha Belawadi as
Joker Hanumanthu as


Watch-Free-HD     Download

Details
Name:Mohabbat Mein Jung (Nanna Ninna Prema Kathe) (2016) Hindi Dubbed 720p HDTVRip x264 750MB - MovC...
Description:
Mohabbat Mein Jung (Nanna Ninna Prema Kathe) (2016) Hindi Dubbed 720p HDTVRip x264 750MB - MovCr Exclusive

 http://www.imdb.com/title/tt5813104/

 

General
Complete name                            : www.movcr.com - Mohabbat Mein Jung (Nanna Ninna Prema Kathe) (2016) Hindi Dubbed 720p HDTVRip x264 750MB - MovCr Exclusive.mkv
Format                                   : Matroska
Format version                           : Version 4 / Version 2
File size                                : 749 MiB
Duration                                 : 1 h 52 min
Overall bit rate                         : 928 kb/s
Movie name                               : www.movcr.com - Exclusive - Register For Exclusive Updates
Encoded date                             : UTC 2018-01-10 07:11:12
Writing application                      : mkvmerge v17.0.0 ('Be Ur Friend') 64-bit
Writing library                          : libebml v1.3.5 + libmatroska v1.4.8

Video
ID                                       : 1
Format                                   : AVC
Format/Info                              : Advanced Video Codec
Format profile                           : [email protected]
Format settings                          : CABAC / 4 Ref Frames
Format settings, CABAC                   : Yes
Format settings, RefFrames               : 4 frames
Codec ID                                 : V_MPEG4/ISO/AVC
Duration                                 : 1 h 52 min
Bit rate                                 : 800 kb/s
Width                                    : 1 280 pixels
Height                                   : 544 pixels
Display aspect ratio                     : 2.35:1
Frame rate mode                          : Variable
Frame rate                               : 24.959 FPS
Color space                              : YUV
Chroma subsampling                       : 4:2:0
Bit depth                                : 8 bits
Scan type                                : Progressive
Bits/(Pixel*Frame)                       : 0.046
Stream size                              : 644 MiB (86%)
Title                                    : www.movcr.com - Exclusive
Writing library                          : x264 core 148 r2708 86b7198
Encoding settings                        : cabac=1 / ref=1 / deblock=1:0:0 / analyse=0x1:0x111 / me=hex / subme=2 / psy=1 / psy_rd=1.00:0.00 / mixed_ref=0 / me_range=16 / chroma_me=1 / trellis=0 / 8x8dct=0 / cqm=0 / deadzone=21,11 / fast_pskip=1 / chroma_qp_offset=0 / threads=12 / lookahead_threads=4 / sliced_threads=0 / nr=0 / decimate=1 / interlaced=0 / bluray_compat=0 / constrained_intra=0 / bframes=3 / b_pyramid=2 / b_adapt=1 / b_bias=0 / direct=1 / weightb=1 / open_gop=0 / weightp=1 / keyint=250 / keyint_min=25 / scenecut=40 / intra_refresh=0 / rc_lookahead=10 / rc=abr / mbtree=1 / bitrate=800 / ratetol=1.0 / qcomp=0.60 / qpmin=0 / qpmax=69 / qpstep=4 / ip_ratio=1.40 / aq=1:1.00
Default                                  : Yes
Forced                                   : No
Color range                              : Limited
Color primaries                          : BT.601 PAL
Transfer characteristics                 : BT.709
Matrix coefficients                      : BT.601

Audio
ID                                       : 2
Format                                   : AAC
Format/Info                              : Advanced Audio Codec
Format profile                           : LC
Codec ID                                 : A_AAC-2
Duration                                 : 1 h 52 min
Bit rate                                 : 128 kb/s
Channel(s)                               : 2 channels
Channel positions                        : Front: L R
Sampling rate                            : 48.0 kHz
Frame rate                               : 46.875 FPS (1024 SPF)
Compression mode                         : Lossy
Delay relative to video                  : -18 ms
Stream size                              : 103 MiB (14%)
Title                                    : www.movcr.com - Exclusive
Default                                  : Yes
Forced                                   : No


                           
Category:Movies > South Dub
Lang:Hindi
Total Size:749.09 MB
Info Hash:3f92b4690a5153ce377b00ab174279f1f22566f1
Added By:MAZE
Date Added:09-01-2018 17:25:30
Views:1,532
Hits:164

Download Torrent

Ratings:Not Yet Rated (Log in to rate it)


Tracker:
udp://tracker.openbittorrent.com:80/announce


File List: 


Comments

No comments still posted

Powered by 10 Hamsters v2-svn -|- Page Generated In 1.983130 secs.
-|- RSS Feed -|- Feed Info
Theme By: Nikkbu