mens supra vaider grey purple | American Lawmen | Sunass inicia campaña de ahorro del agua para evitar su derroche durante el verano
[Login] or [Signup]
Login
Username:
Password:
[Signup]
[Recover Account]


Poll


You must be logged in to view polls



Torrent Details For "Jigsaw 2017 720p WEB-DL DD 5.1 x264"

Jigsaw 2017 720p WEB-DL DD 5.1 x264

Download this torrent | Magnet Download
Health:
Seeds: 390
Leechers: 246
Completed: 469 
Last Checked: 09-01-2018 21:00:25
External Torrent
Update Stats
Download Magnet


Poster
No poster


Watch-Free-HD     Download

Details
Name:Jigsaw 2017 720p WEB-DL DD 5.1 x264
Description:

 

General
Format                      : Matroska
Format version              : Version 4 / Version 2
File size                   : 874 MiB
Duration                    : 1 h 31 min
Overall bit rate            : 1 329 kb/s

Video
ID                          : 1
Format                      : AVC
Format/Info                 : Advanced Video Codec
Format profile              : [email protected]
Format settings             : CABAC / 4 Ref Frames
Format settings, CABAC      : Yes
Format settings, ReFrames   : 4 frames
Codec ID                    : V_MPEG4/ISO/AVC
Duration                    : 1 h 31 min
Bit rate                    : 1 100 kb/s
Width                       : 1 280 pixels
Height                      : 536 pixels
Display aspect ratio        : 2.40:1
Frame rate mode             : Constant
Frame rate                  : 23.976 (24000/1001) FPS
Color space                 : YUV
Chroma subsampling          : 4:2:0
Bit depth                   : 8 bits
Scan type                   : Progressive
Bits/(Pixel*Frame)          : 0.067
Stream size                 : 704 MiB (81%)
Writing library             : x264 core 148 r2708 86b7198
Default                     : Yes
Forced                      : No

Audio
ID                          : 2
Format                      : AC-3
Format/Info                 : Audio Coding 3
Codec ID                    : A_AC3
Duration                    : 1 h 31 min
Bit rate mode               : Constant
Bit rate                    : 256 kb/s
Channel(s)                  : 6 channels
Channel positions           : Front: L C R, Side: L R, LFE
Sampling rate               : 48.0 kHz
Frame rate                  : 31.250 FPS (1536 SPF)
Bit depth                   : 16 bits
Compression mode            : Lossy
Stream size                 : 168 MiB (19%)
Language                    : English
Service kind                : Complete Main
Default                     : Yes
Forced                      : No





 
 
 
 
 
 
 
 

Category:Movies > HDRips
Lang:English  English
Total Size:873.77 MB
Info Hash:280fb797d5e9f901899d71be9257e3113a92e7b2
Added By:Freaky
Date Added:09-01-2018 16:32:27
Views:210
Hits:63

Download Torrent

Ratings:Not Yet Rated (Log in to rate it)


Tracker:
udp://tracker.coppersurfer.tk:6969/announce


File List: 


Comments

No comments still posted

Powered by 10 Hamsters v2-svn -|- Page Generated In 0.044327 secs.
-|- RSS Feed -|- Feed Info
Theme By: Nikkbu