Schoolhouse Rock! | Arthur Kennedy | Elementary
[Login] or [Signup]
Login
Username:
Password:
[Signup]
[Recover Account]


Poll


You must be logged in to view polls



Torrent Details For "Jigsaw 2017 720p WEB-DL x264 AAC MSubS - Hon3y"

Jigsaw 2017 720p WEB-DL x264 AAC MSubS - Hon3y

Download this torrent | Magnet Download
Health:
Seeds: 0
Leechers: 0
Completed:
Last Checked: 09-01-2018 15:42:31
External Torrent
Update Stats
Download Magnet


Poster


iMDB
Imdb Picture Title: Jigsaw
Year: 2017
Runtime: 91 minutes
Votes: 5032
Rating: 6.3/10
Language: English
Country: USA
All Genres: Crime, Horror, Mystery, Thriller
Plot Outline: Bodies are turning up around the city, each having met a uniquely gruesome demise. As the investigation proceeds, evidence points to one suspect: John Kramer, the man known as Jigsaw, who has been dead for ten years.
Tagline: Are you worthy?
Director: Michael Spierig
Peter Spierig
Writing By: Pete Goldfinger,Josh Stolberg,
Produced By: Peter Block,Mark Burg,Kym Crepin,Daniel J. Heffner,Gregg Hoffman,Ketura Kestin,Oren Koules,Stacey Testro,James Wan,Leigh Whannell,
Music: Charlie Clouser
Cast:
Matt Passmore as Logan Nelson
Tobin Bell as Jigsaw / John Kramer
Callum Keith Rennie as Detective Halloran
Hannah Emily Anderson as Eleanor Bonneville
Clé Bennett as Detective Keith Hunt
Laura Vandervoort as Anna
Paul Braunstein as Ryan
Mandela Van Peebles as Mitch
Brittany Allen as Carly
Josiah Black as Edgar Munsen
Trailers:
Official Trailer


Watch-Free-HD     Download

Details
Name:Jigsaw 2017 720p WEB-DL x264 AAC MSubS - Hon3y
Description:
Jigsaw 2017 720p WEB-DL x264 AAC MSubS - Hon3y

Source: FGT
Format                      : Matroska
Format version              : Version 4 / Version 2
File size                   : 878 MiB
Duration                    : 1 h 32 min
Overall bit rate            : 1 330 kb/s
Movie name                  : Jigsaw.2017-Hon3y


Video
ID                          : 1
Format                      : AVC
Format/Info                 : Advanced Video Codec
Format profile              : [email protected]
Format settings, CABAC      : Yes
Format settings, RefFrames  : 8 frames
Codec ID                    : V_MPEG4/ISO/AVC
Duration                    : 1 h 32 min
Bit rate                    : 1 200 kb/s
Width                       : 1 280 pixels
Height                      : 536 pixels
Display aspect ratio        : 2.40:1
Frame rate mode             : Constant
Frame rate                  : 23.976 (24000/1001) FPS


Audio
ID                          : 2
Format                      : AAC
Format/Info                 : Advanced Audio Codec
Format profile              : LC
Codec ID                    : A_AAC
Duration                    : 1 h 32 min
Bit rate                    : 128 kb/s
Channel(s)                  : 2 channels
Channel positions           : Front: L R
Sampling rate               : 48.0 kHz
Frame rate                  : 46.875 FPS (1024 SPF)
Compression mode            : Lossy
Delay relative to video     : -21 ms
Stream size                 : 84.5 MiB (10%)
Title                       : Stereo
Language                    : English
Default                     : Yes
Forced                      : No

Text #1
ID                          : 3
Format                      : UTF-8
Codec ID                    : S_TEXT/UTF8
Codec ID/Info               : UTF-8 Plain Text
Duration                    : 1 h 25 min
Bit rate                    : 75 b/s
Count of elements           : 1195
Stream size                 : 47.2 KiB (0%)
Language                    : English
Default                     : Yes
Forced                      : No

Text #2
ID                          : 4
Format                      : UTF-8
Codec ID                    : S_TEXT/UTF8
Codec ID/Info               : UTF-8 Plain Text
Duration                    : 1 h 23 min
Bit rate                    : 46 b/s
Count of elements           : 712
Stream size                 : 28.6 KiB (0%)
Language                    : Dutch
Default                     : No
Forced                      : No

Text #3
ID                          : 5
Format                      : UTF-8
Codec ID                    : S_TEXT/UTF8
Codec ID/Info               : UTF-8 Plain Text
Duration                    : 1 h 31 min
Bit rate                    : 50 b/s
Count of elements           : 1055
Stream size                 : 33.8 KiB (0%)
Language                    : Spanish
Default                     : No
Forced                      : No

Text #4
ID                          : 6
Format                      : UTF-8
Codec ID                    : S_TEXT/UTF8
Codec ID/Info               : UTF-8 Plain Text
Duration                    : 1 h 24 min
Bit rate                    : 45 b/s
Count of elements           : 687
Stream size                 : 28.2 KiB (0%)
Language                    : Danish
Default                     : No
Forced                      : No

Menu
00:00:00.083                : :Chapter 1
00:08:55.035                : :Chapter 2
00:17:40.309                : :Chapter 3
00:29:18.340                : :Chapter 4
00:38:39.567                : :Chapter 5
00:48:29.198                : :Chapter 6
00:58:18.787                : :Chapter 7
01:09:32.502                : :Chapter 8
01:18:29.747                : :Chapter 9
01:25:12.149                : :Chapter 10

           
Category:Movies > HDRips
Lang:English  English
Total Size:877.79 MB
Info Hash:369813965f7e174f0b2be4e2980ad1dcc29a4f02
Added By:Hon3y
Date Added:09-01-2018 15:42:31
Views:110
Hits:13

Download Torrent

Ratings:Not Yet Rated (Log in to rate it)


Tracker:
udp://tracker.coppersurfer.tk:6969/announce


File List: 


Comments

No comments still posted

Powered by 10 Hamsters v2-svn -|- Page Generated In 0.808750 secs.
-|- RSS Feed -|- Feed Info
Theme By: Nikkbu