Inna 2018 Nirvana | Kendrick Lamar 2018 | Werrason 2018
[Login] or [Signup]
Login
Username:
Password:
[Signup]
[Recover Account]


Poll


You must be logged in to view polls



Torrent Details For "Bullet Head 2017 720p BRRip x264 AAC 5.1- Hon3y"

Bullet Head 2017 720p BRRip x264 AAC 5.1- Hon3y

Download this torrent | Magnet Download
Health:
Seeds: 0
Leechers: 0
Completed:
Last Checked: 09-01-2018 15:38:26
External Torrent
Update Stats
Download Magnet


Poster


Watch-Free-HD     Download

Details
Name:Bullet Head 2017 720p BRRip x264 AAC 5.1- Hon3y
Description:
Bullet Head 2017 720p BRRip x264 AAC 5.1- Hon3y

Source:MT
Format                      : Matroska
Format version              : Version 4 / Version 2
File size                   : 897 MiB
Duration                    : 1 h 34 min
Overall bit rate            : 1 330 kb/s
Movie name                  : Bullet.Head.2017-Hon3y


Video
ID                          : 1
Format                      : AVC
Format/Info                 : Advanced Video Codec
Format profile              : [email protected]
Format settings, CABAC      : Yes
Format settings, RefFrames  : 8 frames
Codec ID                    : V_MPEG4/ISO/AVC
Duration                    : 1 h 34 min
Bit rate                    : 1 200 kb/s
Width                       : 1 280 pixels
Height                      : 536 pixels
Display aspect ratio        : 2.40:1
Frame rate mode             : Constant
Frame rate                  : 23.976 (24000/1001) FPS


Audio
ID                          : 2
Format                      : AAC
Format/Info                 : Advanced Audio Codec
Format profile              : LC
Codec ID                    : A_AAC
Duration                    : 1 h 34 min
Bit rate                    : 128 kb/s
Channel(s)                  : 2 channels
Channel positions           : Front: L R
Sampling rate               : 48.0 kHz
Frame rate                  : 46.875 FPS (1024 SPF)
Compression mode            : Lossy
Delay relative to video     : -21 ms
Stream size                 : 86.4 MiB (10%)
Title                       : Stereo
Language                    : English
Default                     : Yes
Forced                      : No

Text
ID                          : 3
Format                      : UTF-8
Codec ID                    : S_TEXT/UTF8
Codec ID/Info               : UTF-8 Plain Text
Duration                    : 1 h 24 min
Bit rate                    : 42 b/s
Count of elements           : 698
Stream size                 : 26.3 KiB (0%)
Language                    : English
Default                     : Yes
Forced                      : No

           
Category:Movies > 720P Bluray
Lang:English  English
Total Size:897.12 MB
Info Hash:ad05abb15bdb8e64da7bed4fbb066c90dd13da2c
Added By:Hon3y
Date Added:09-01-2018 15:38:26
Views:161
Hits:13

Download Torrent

Ratings:Not Yet Rated (Log in to rate it)


Tracker:
udp://tracker.coppersurfer.tk:6969/announce


File List: 


Comments

No comments still posted

Powered by 10 Hamsters v2-svn -|- Page Generated In 1.014945 secs.
-|- RSS Feed -|- Feed Info
Theme By: Nikkbu