Stormzy ft. MNEK - Blinded By Your Grace Pt.2 | Conor McGregor | Papa no Iukoto o Kikinasai
[Login] or [Signup]
Login
Username:
Password:
[Signup]
[Recover Account]


Poll


You must be logged in to view polls



Torrent Details For "Scooby-Doo and Batman the Brave and the Bold 2018 720p WEB-DL DD 5.1 x264 ESub"

Scooby-Doo and Batman the Brave and the Bold 2018 720p WEB-DL DD 5.1 x264 ESub

Download this torrent | Magnet Download
Health:
Seeds: 309
Leechers: 259
Completed: 853 
Last Checked: 09-01-2018 21:00:27
External Torrent
Update Stats
Download Magnet


Poster


Watch-Free-HD     Download

Details
Name:Scooby-Doo and Batman the Brave and the Bold 2018 720p WEB-DL DD 5.1 x264 ESub
Description:



General
Format                      : Matroska
Format version              : Version 4 / Version 2
File size                   : 736 MiB
Duration                    : 1 h 15 min
Overall bit rate            : 1 369 kb/s

Video
ID                          : 1
Format                      : AVC
Format/Info                 : Advanced Video Codec
Format profile              : [email protected]
Format settings             : CABAC / 4 Ref Frames
Format settings, CABAC      : Yes
Format settings, ReFrames   : 4 frames
Codec ID                    : V_MPEG4/ISO/AVC
Duration                    : 1 h 15 min
Bit rate                    : 1 100 kb/s
Width                       : 1 280 pixels
Height                      : 718 pixels
Display aspect ratio        : 16:9
Frame rate mode             : Constant
Frame rate                  : 23.976 (24000/1001) FPS
Color space                 : YUV
Chroma subsampling          : 4:2:0
Bit depth                   : 8 bits
Scan type                   : Progressive
Bits/(Pixel*Frame)          : 0.050
Stream size                 : 597 MiB (81%)
Writing library             : x264 core 148 r2708 86b7198
Default                     : Yes
Forced                      : No

Audio
ID                          : 2
Format                      : AC-3
Format/Info                 : Audio Coding 3
Codec ID                    : A_AC3
Duration                    : 1 h 15 min
Bit rate mode               : Constant
Bit rate                    : 256 kb/s
Channel(s)                  : 6 channels
Channel positions           : Front: L C R, Side: L R, LFE
Sampling rate               : 48.0 kHz
Frame rate                  : 31.250 FPS (1536 SPF)
Bit depth                   : 16 bits
Compression mode            : Lossy
Stream size                 : 138 MiB (19%)
Language                    : English
Service kind                : Complete Main
Default                     : Yes
Forced                      : No

Text
ID                          : 3
Format                      : UTF-8
Codec ID                    : S_TEXT/UTF8
Codec ID/Info               : UTF-8 Plain Text
Duration                    : 1 h 11 min
Bit rate                    : 72 b/s
Count of elements           : 1392
Stream size                 : 38.2 KiB (0%)
Language                    : English
Default                     : Yes
Forced                      : No





 
 
 http://pichub.site/image/d6Vj
 http://pichub.site/image/dPUr
 http://pichub.site/image/dX9k
 http://pichub.site/image/dsRQ

Category:Movies > HDRips
Lang:English  English
Total Size:735.84 MB
Info Hash:c9c0cfbdf9a18185fd8b2584c3a931147f53e322
Added By:Freaky
Date Added:09-01-2018 13:44:17
Views:104
Hits:13

Download Torrent

Ratings:Not Yet Rated (Log in to rate it)


Tracker:
udp://tracker.coppersurfer.tk:6969/announce


File List: 


Comments

No comments still posted

Powered by 10 Hamsters v2-svn -|- Page Generated In 0.003732 secs.
-|- RSS Feed -|- Feed Info
Theme By: Nikkbu