Windows 10 Pro v.1511 En-us x64 July2016 Pre-Activated-=TEAM OS= | Adobe Photoshop CS6 13.0.1 Final Multilanguage (cracked dll) [C | FL STUDIO Producer Edition 12.2.3 + Crack
[Login] or [Signup]
Login
Username:
Password:
[Signup]
[Recover Account]


Poll


You must be logged in to view polls



Torrent Details For "A Tale of Two Coreys 2018 720p WEB-HD x264"

A Tale of Two Coreys 2018 720p WEB-HD x264

Download this torrent | Magnet Download
Health:
Seeds: 203
Leechers: 99
Completed: 991 
Last Checked: 09-01-2018 05:17:33
External Torrent
Update Stats
Download Magnet


Poster


Watch-Free-HD     Download

Details
Name:A Tale of Two Coreys 2018 720p WEB-HD x264
Description:



General
Format                      : Matroska
Format version              : Version 4 / Version 2
File size                   : 754 MiB
Duration                    : 1 h 26 min
Overall bit rate            : 1 224 kb/s

Video
ID                          : 1
Format                      : AVC
Format/Info                 : Advanced Video Codec
Format profile              : [email protected]
Format settings             : CABAC / 4 Ref Frames
Format settings, CABAC      : Yes
Format settings, ReFrames   : 4 frames
Codec ID                    : V_MPEG4/ISO/AVC
Duration                    : 1 h 26 min
Bit rate                    : 1 100 kb/s
Width                       : 1 280 pixels
Height                      : 720 pixels
Display aspect ratio        : 16:9
Frame rate mode             : Constant
Frame rate                  : 23.976 (24000/1001) FPS
Color space                 : YUV
Chroma subsampling          : 4:2:0
Bit depth                   : 8 bits
Scan type                   : Progressive
Bits/(Pixel*Frame)          : 0.050
Stream size                 : 674 MiB (89%)
Writing library             : x264 core 148 r2708 86b7198
Default                     : Yes
Forced                      : No

Audio
ID                          : 2
Format                      : AAC
Format/Info                 : Advanced Audio Codec
Format profile              : LC
Codec ID                    : A_AAC-2
Duration                    : 1 h 26 min
Bit rate                    : 128 kb/s
Channel(s)                  : 2 channels
Channel positions           : Front: L R
Sampling rate               : 44.1 kHz
Frame rate                  : 43.066 FPS (1024 SPF)
Compression mode            : Lossy
Stream size                 : 78.8 MiB (10%)
Default                     : Yes
Forced                      : No





 
 
 http://pichub.site/image/D7gd
 http://pichub.site/image/DkMu
 http://pichub.site/image/DwtR
 http://pichub.site/image/Dyps

Category:Movies > WEB-HD
Lang:English  English
Total Size:754.18 MB
Info Hash:1603c00dad6708ecafb4f20a3e8dfddb2fb344bb
Added By:Freaky
Date Added:08-01-2018 08:51:42
Views:102
Hits:6

Download Torrent

Ratings:Not Yet Rated (Log in to rate it)


Tracker:
udp://tracker.pirateparty.gr:6969/announce

This Torrent also has backup trackers
URLSeedersLeechersCompleted
http://explodie.org:6969/announce000
http://mgtracker.org:6969/announce000
http://tracker.opentrackr.org/announce000


File List: 


Comments

No comments still posted

Powered by 10 Hamsters v2-svn -|- Page Generated In 0.039950 secs.
-|- RSS Feed -|- Feed Info
Theme By: Nikkbu