Ciencia Ficción | Sobrenatural | Thriller
[Login] or [Signup]
Login
Username:
Password:
[Signup]
[Recover Account]


Poll


You must be logged in to view polls



Torrent Details For "Jeremiah Tower the Last Magnificent 2016 720p WEBRip x264 ESubs"

Jeremiah Tower the Last Magnificent 2016 720p WEBRip x264 ESubs

Download this torrent | Magnet Download
Health:
Seeds: 53
Leechers: 58
Completed: 275 
Last Checked: 09-01-2018 05:16:43
External Torrent
Update Stats
Download Magnet


Poster


Watch-Free-HD     Download

Details
Name:Jeremiah Tower the Last Magnificent 2016 720p WEBRip x264 ESubs
Description:




General
Format                      : Matroska
Format version              : Version 4 / Version 2
File size                   : 907 MiB
Duration                    : 1 h 42 min
Overall bit rate            : 1 234 kb/s

Video
ID                          : 1
Format                      : AVC
Format/Info                 : Advanced Video Codec
Format profile              : [email protected]
Format settings             : CABAC / 4 Ref Frames
Format settings, CABAC      : Yes
Format settings, ReFrames   : 4 frames
Codec ID                    : V_MPEG4/ISO/AVC
Duration                    : 1 h 42 min
Bit rate                    : 1 100 kb/s
Width                       : 1 280 pixels
Height                      : 692 pixels
Display aspect ratio        : 1.85:1
Frame rate mode             : Constant
Frame rate                  : 23.976 (24000/1001) FPS
Color space                 : YUV
Chroma subsampling          : 4:2:0
Bit depth                   : 8 bits
Scan type                   : Progressive
Bits/(Pixel*Frame)          : 0.052
Stream size                 : 810 MiB (89%)
Writing library             : x264 core 148 r2708 86b7198
Default                     : Yes
Forced                      : No

Audio
ID                          : 2
Format                      : AAC
Format/Info                 : Advanced Audio Codec
Format profile              : LC
Codec ID                    : A_AAC-2
Duration                    : 1 h 42 min
Bit rate                    : 128 kb/s
Channel(s)                  : 2 channels
Channel positions           : Front: L R
Sampling rate               : 44.1 kHz
Frame rate                  : 43.066 FPS (1024 SPF)
Compression mode            : Lossy
Stream size                 : 94.0 MiB (10%)
Language                    : English
Default                     : Yes
Forced                      : No

Text #1
ID                          : 3
Format                      : UTF-8
Codec ID                    : S_TEXT/UTF8
Codec ID/Info               : UTF-8 Plain Text
Duration                    : 1 h 40 min
Bit rate                    : 102 b/s
Count of elements           : 3287
Stream size                 : 75.2 KiB (0%)
Language                    : English
Default                     : Yes
Forced                      : No

Text #2
ID                          : 4
Format                      : UTF-8
Codec ID                    : S_TEXT/UTF8
Codec ID/Info               : UTF-8 Plain Text
Duration                    : 1 h 41 min
Bit rate                    : 94 b/s
Count of elements           : 1617
Stream size                 : 70.5 KiB (0%)
Language                    : Spanish
Default                     : No
Forced                      : No

Text #3
ID                          : 5
Format                      : UTF-8
Codec ID                    : S_TEXT/UTF8
Codec ID/Info               : UTF-8 Plain Text
Duration                    : 1 h 41 min
Bit rate                    : 101 b/s
Count of elements           : 1611
Stream size                 : 75.3 KiB (0%)
Language                    : French
Default                     : No
Forced                      : No

Text #4
ID                          : 6
Format                      : UTF-8
Codec ID                    : S_TEXT/UTF8
Codec ID/Info               : UTF-8 Plain Text
Duration                    : 1 h 41 min
Bit rate                    : 102 b/s
Count of elements           : 1618
Stream size                 : 76.3 KiB (0%)
Language                    : German
Default                     : No
Forced                      : No

Text #5
ID                          : 7
Format                      : UTF-8
Codec ID                    : S_TEXT/UTF8
Codec ID/Info               : UTF-8 Plain Text
Duration                    : 1 h 41 min
Bit rate                    : 97 b/s
Count of elements           : 1616
Stream size                 : 72.1 KiB (0%)
Language                    : Italian
Default                     : No
Forced                      : No

Text #6
ID                          : 8
Format                      : UTF-8
Codec ID                    : S_TEXT/UTF8
Codec ID/Info               : UTF-8 Plain Text
Duration                    : 1 h 41 min
Bit rate                    : 100 b/s
Count of elements           : 1620
Stream size                 : 74.4 KiB (0%)
Language                    : Portuguese
Default                     : No
Forced                      : No

Text #7
ID                          : 9
Format                      : UTF-8
Codec ID                    : S_TEXT/UTF8
Codec ID/Info               : UTF-8 Plain Text
Duration                    : 1 h 41 min
Bit rate                    : 84 b/s
Count of elements           : 1617
Stream size                 : 62.6 KiB (0%)
Language                    : Polish
Default                     : No
Forced                      : No




 
 
 http://pichub.site/image/Daph
 http://pichub.site/image/DIbj
 http://pichub.site/image/DRcr
 http://pichub.site/image/DSvk

Category:Movies > WEB-HD
Lang:English  English
Total Size:906.54 MB
Info Hash:5c5a532909fe563c4a8196aa4126ab5f82df6461
Added By:Freaky
Date Added:08-01-2018 08:49:00
Views:101
Hits:3

Download Torrent

Ratings:Not Yet Rated (Log in to rate it)


Tracker:
udp://tracker.pirateparty.gr:6969/announce

This Torrent also has backup trackers
URLSeedersLeechersCompleted
http://explodie.org:6969/announce000
http://mgtracker.org:6969/announce5515
http://tracker.opentrackr.org/announce000


File List: 


Comments

No comments still posted

Powered by 10 Hamsters v2-svn -|- Page Generated In 0.034302 secs.
-|- RSS Feed -|- Feed Info
Theme By: Nikkbu