Cancel reply | Cancel reply | IMNews WordPress Theme
[Login] or [Signup]
Login
Username:
Password:
[Signup]
[Recover Account]


Poll


You must be logged in to view polls



Torrent Details For "Naa Ishtam (2012) New Hindi Dubbed 720p WEBHD x264 ESubs - AAC - 1.2GB - Movcr"

Naa Ishtam (2012) New Hindi Dubbed 720p WEBHD x264 ESubs - AAC - 1.2GB - Movcr

Download this torrent | Magnet Download
Health:
Seeds: 242
Leechers: 96
Completed: 2,306 
Last Checked: 08-01-2018 02:02:26
External Torrent
Update Stats
Download Magnet


Poster


iMDB
Imdb Picture Title: Naa Ishtam
Year: 2012
Votes: 98
Rating: 4.4/10
Language: Telugu
Country: India
All Genres: Drama
Plot Outline: Gani (Rana) is a Telugu youth who lives and works in Malaysia and he is an extremely selfish person. He always thinks about himself and his benefits first. Into his routine life comes ...
Director: Prakash Tholeti
Writing By: Prakash Tholeti,Prakash Tholeti,Kona Venkat,
Produced By: Paruchuri Kireeti,
Music: Chakri
Cast:
Rana Daggubati as
Genelia D'Souza as
Brahmanandam as
Harshavardhan as
Nassar as
Pragathi as
Raghu Babu as
Ali as
Master Bharath as
Uttej as


Watch-Free-HD     Download

Details
Name:Naa Ishtam (2012) New Hindi Dubbed 720p WEBHD x264 ESubs - AAC - 1.2GB - Movcr
Description:
Naa Ishtam (2012) New Hindi Dubbed 720p WEBHD x264 ESubs - AAC - 1.2GB - Movcr

 http://www.imdb.com/title/tt2156899/


 
General
Complete name                            : www.movcr.com - Naa Ishtam (2012) New Hindi Dubbed 720p WEBHD x264 ESubs - AAC - 1.2GB - Movcr.mkv
Format                                   : Matroska
Format version                           : Version 4 / Version 2
File size                                : 1.20 GiB
Duration                                 : 1 h 59 min
Overall bit rate                         : 1 445 kb/s
Movie name                               : www.movcr.com Exclusive - Register For More Exclusive Updates
Encoded date                             : UTC 2018-01-06 05:40:14
Writing application                      : mkvmerge v17.0.0 ('Be Ur Friend') 64-bit
Writing library                          : libebml v1.3.5 + libmatroska v1.4.8 / Lavf55.33.100

Video
ID                                       : 1
Format                                   : AVC
Format/Info                              : Advanced Video Codec
Format profile                           : [email protected]
Format settings                          : CABAC / 3 Ref Frames
Format settings, CABAC                   : Yes
Format settings, RefFrames               : 3 frames
Codec ID                                 : V_MPEG4/ISO/AVC
Duration                                 : 1 h 59 min
Bit rate                                 : 1 317 kb/s
Width                                    : 1 280 pixels
Height                                   : 720 pixels
Display aspect ratio                     : 16:9
Frame rate mode                          : Constant
Frame rate                               : 25.000 FPS
Color space                              : YUV
Chroma subsampling                       : 4:2:0
Bit depth                                : 8 bits
Scan type                                : Progressive
Bits/(Pixel*Frame)                       : 0.057
Stream size                              : 1.09 GiB (91%)
Title                                    : www.movcr.com Exclusive / ISO Media file produced by Google Inc. Created on: 01/05/2018.
Default                                  : Yes
Forced                                   : No
Encoded date                             : UTC 2018-01-05 10:31:53
Color range                              : Limited
Color primaries                          : BT.709
Transfer characteristics                 : BT.709
Matrix coefficients                      : BT.709

Audio
ID                                       : 2
Format                                   : AAC
Format/Info                              : Advanced Audio Codec
Format profile                           : LC
Codec ID                                 : A_AAC-2
Duration                                 : 1 h 59 min
Bit rate                                 : 126 kb/s
Channel(s)                               : 2 channels
Channel positions                        : Front: L R
Sampling rate                            : 44.1 kHz
Frame rate                               : 43.066 FPS (1024 SPF)
Compression mode                         : Lossy
Stream size                              : 107 MiB (9%)
Title                                    : www.movcr.com Exclusive / ISO Media file produced by Google Inc. Created on: 01/05/2018.
Language                                 : Hindi
Default                                  : Yes
Forced                                   : No
Encoded date                             : UTC 2018-01-05 10:31:53

Text
ID                                       : 3
Format                                   : UTF-8
Codec ID                                 : S_TEXT/UTF8
Codec ID/Info                            : UTF-8 Plain Text
Duration                                 : 2 s 0 ms
Bit rate                                 : 68 b/s
Count of elements                        : 1
Stream size                              : 17.0 Bytes (0%)
Title                                    : www.movcr.com Exclusive
Language                                 : English
Default                                  : Yes
Forced                                   : No
HANDLER                                  : en


 
 
 
 
 
 
Category:Movies > South Dub
Lang:Hindi
Total Size:1.20 GB
Info Hash:1b9e84b5001eae4a816768e9c4b000cb925a4448
Added By:MAZE
Date Added:05-01-2018 15:51:43
Views:1,517
Hits:236

Download Torrent

Ratings:Not Yet Rated (Log in to rate it)


Tracker:
udp://tracker.openbittorrent.com:80/announce


File List: 


Comments

No comments still posted

Powered by 10 Hamsters v2-svn -|- Page Generated In 1.137366 secs.
-|- RSS Feed -|- Feed Info
Theme By: Nikkbu