Xavier Giannoli | Yannick Lorté | Yun-Ping He
[Login] or [Signup]
Login
Username:
Password:
[Signup]
[Recover Account]


Poll


You must be logged in to view polls



Torrent Details For "Sipaayi (2018) Hindi Dubbed HDTVRip x264 AAC 900MB - Movcr Exclusive"

Sipaayi (2018) Hindi Dubbed HDTVRip x264 AAC 900MB - Movcr Exclusive

Download this torrent | Magnet Download
Health:
Seeds: 9
Leechers: 618
Completed:
Last Checked: 05-01-2018 17:11:18
External Torrent
Update Stats
Download Magnet


Poster


iMDB
Imdb Picture Title: Sipaayi
Year: 2016
Runtime: 125 minutes
Votes: 5
Rating: 8.2/10
Language: Kannada
Country: India
All Genres: Action
Plot Outline: The protagonist, a TV reporter fights to stop illegal activities around the city.
Director: Rajath Mayee
Writing By: Rajath Mayee,
Produced By: Maheshr,
Music: B. Ajaneesh Loknath
Cast:
Gaurish Akki as Vishwanath
Sruthi Hariharan as Divya
Krishna Hebbale as Virat
Achyuth Kumar as Narasimharaju
Siddharth Mahesh as Siddharth
Bharath Singh as Abhay
Sanchari Vijay as Manju


Watch-Free-HD     Download

Details
Name:Sipaayi (2018) Hindi Dubbed HDTVRip x264 AAC 900MB - Movcr Exclusive
Description:
Sipaayi (2018) Hindi Dubbed HDTVRip x264 AAC 900MB - Movcr Exclusive

 http://www.imdb.com/title/tt6034076/

 
General
Complete name                            : www.movcr.com - Sipaayi (2018) Hindi Dubbed HDTVRip x264 AAC 900MB - Movcr Exclusive.mkv
Format                                   : Matroska
Format version                           : Version 4 / Version 2
File size                                : 932 MiB
Duration                                 : 1 h 50 min
Overall bit rate                         : 1 178 kb/s
Movie name                               : www.movcr.com - Register For Exclusive Updates
Encoded date                             : UTC 2018-01-06 03:53:53
Writing application                      : mkvmerge v17.0.0 ('Be Ur Friend') 64-bit
Writing library                          : libebml v1.3.5 + libmatroska v1.4.8

Video
ID                                       : 1
Format                                   : AVC
Format/Info                              : Advanced Video Codec
Format profile                           : [email protected]
Format settings                          : 1 Ref Frames
Format settings, CABAC                   : No
Format settings, RefFrames               : 1 frame
Format settings, GOP                     : M=1, N=30
Codec ID                                 : V_MPEG4/ISO/AVC
Duration                                 : 1 h 50 min
Bit rate                                 : 1 041 kb/s
Width                                    : 864 pixels
Height                                   : 480 pixels
Display aspect ratio                     : 16:9
Frame rate mode                          : Constant
Frame rate                               : 30.000 FPS
Standard                                 : NTSC
Color space                              : YUV
Chroma subsampling                       : 4:2:0
Bit depth                                : 8 bits
Scan type                                : Progressive
Bits/(Pixel*Frame)                       : 0.084
Stream size                              : 824 MiB (88%)
Title                                    : www.movcr.com
Default                                  : Yes
Forced                                   : No
Color range                              : Limited
Color primaries                          : BT.601 PAL
Transfer characteristics                 : BT.601
Matrix coefficients                      : BT.601

Audio
ID                                       : 2
Format                                   : AAC
Format/Info                              : Advanced Audio Codec
Format profile                           : LC
Codec ID                                 : A_AAC-2
Duration                                 : 1 h 50 min
Bit rate                                 : 132 kb/s
Channel(s)                               : 2 channels
Channel positions                        : Front: L R
Sampling rate                            : 44.1 kHz
Frame rate                               : 43.066 FPS (1024 SPF)
Compression mode                         : Lossy
Delay relative to video                  : -33 ms
Stream size                              : 106 MiB (11%)
Title                                    : www.movcr.com
Language                                 : Hindi
Default                                  : Yes
Forced                                   : No


 
 
 
 
 
 
 
 
Category:Movies > South Dub
Lang:Hindi
Total Size:931.80 MB
Info Hash:6aaea19cbb3dfc0964d8db464f8352ef22041a6e
Added By:MAZE
Date Added:05-01-2018 14:04:46
Views:1,504
Hits:116

Download Torrent

Ratings:Not Yet Rated (Log in to rate it)


Tracker:
udp://tracker.openbittorrent.com:80/announce


File List: 


Comments

No comments still posted

Powered by 10 Hamsters v2-svn -|- Page Generated In 1.318436 secs.
-|- RSS Feed -|- Feed Info
Theme By: Nikkbu