Revolving Doors of Vengeance | Rogue Emperor | Ruse of Engagement
[Login] or [Signup]
Login
Username:
Password:
[Signup]
[Recover Account]


Poll


You must be logged in to view polls



Torrent Details For "Maacher Jhol (Bengali Movie) - 1CD - HD Rip[Mp4 - AAC3]"

Maacher Jhol (Bengali Movie) - 1CD - HD Rip[Mp4 - AAC3]

Download this torrent | Magnet Download
Health:
Seeds: 0
Leechers: 13
Completed:
Last Checked: 08-01-2018 14:40:44
External Torrent
Update Stats
Download Magnet


Poster


Watch-Free-HD     Download

Details
Name:Maacher Jhol (Bengali Movie) - 1CD - HD Rip[Mp4 - AAC3]
Description:
Maacher Jhol (Bengali Movie) - 1CD -
HD Rip[Mp4 - AAC3]
 





General
Format                                   : MPEG-4
Format profile                           : Base Media / Version 2
Codec ID                                 : mp42 (mp42/isom/avc1)
File size                                : 700 MiB
Duration                                 : 2 h 5 min

Video
ID                                       : 2
Format                                   : AVC
Format/Info                              : Advanced Video Codec
Format profile                           : [email protected]
Format settings                          : CABAC / 5 Ref Frames
Format settings, CABAC                   : Yes
Format settings, RefFrames               : 5 frames
Codec ID                                 : avc1
Codec ID/Info                            : Advanced Video Coding
Duration                                 : 2 h 5 min
Bit rate mode                            : Variable
Bit rate                                 : 680 kb/s
Maximum bit rate                         : 8 200 kb/s
Width                                    : 720 pixels
Height                                   : 576 pixels
Display aspect ratio                     : 16:9
Frame rate mode                          : Constant
Frame rate                               : 25.000 FPS
Standard                                 : PAL
Color space                              : YUV
Chroma subsampling                       : 4:2:0
Bit depth                                : 8 bits
Scan type                                : Progressive
Bits/(Pixel*Frame)                       : 0.066
Stream size                              : 617 MiB (88%)

Audio
ID                                       : 1
Format                                   : AAC
Format/Info                              : Advanced Audio Codec
Format profile                           : LC
Codec ID                                 : mp4a-40-2
Duration                                 : 2 h 5 min
Bit rate mode                            : Variable
Bit rate                                 : 93.4 kb/s
Maximum bit rate                         : 576 kb/s
Channel(s)                               : 2 channels
Channel positions                        : Front: L R
Sampling rate                            : 48.0 kHz
Stream size                              : 84.1 MiB (12%)



Thumbnail




Category:Movies > Bengali
Lang:Bengali  Bengali
Total Size:703.90 MB
Info Hash:c0fbad41135dd27dd3155452cef86f06062d558b
Added By:Pherarim
Date Added:02-01-2018 07:59:21
Views:151
Hits:19

Download Torrent

Ratings:Not Yet Rated (Log in to rate it)

  


Tracker:
udp://9.rarbg.me:2710/announce


File List: 


Comments

<< Previous      Next >>
1 - 1

[Report] Posted: 02-01-2018 at 12:34:23
tarunbhai



Uploaded: 0.00 B
Downloaded: 0.00 B
Ratio: ---

I need this movie without any advertisement...  :)

1 - 1
<< Previous      Next >>


Powered by 10 Hamsters v2-svn -|- Page Generated In 1.206570 secs.
-|- RSS Feed -|- Feed Info
Theme By: Nikkbu