Liana Liberato | Cam Gigandet | Jordana Spiro
[Login] or [Signup]
Login
Username:
Password:
[Signup]
[Recover Account]


Poll


You must be logged in to view polls



Torrent Details For "The Foreigner (2017) 720p BDRip x264 ESubs - Original Auds-[Telugu + Tam + Hin + Eng] - 1GB - M..."

The Foreigner (2017) 720p BDRip x264 ESubs - Original Auds-[Telugu + Tam + Hin + Eng] - 1GB - M...

Download this torrent | Magnet Download
Health:
Seeds: 19
Leechers: 9
Completed: 3,159 
Last Checked: 17-01-2018 19:12:15
External Torrent
Update Stats
Download Magnet


Poster


iMDB
Imdb Picture Title: The Foreigner
Year: 2017
Runtime: 114 minutes
Votes: 4339
Rating: 7.4/10
Language: English, Mandarin
Country: UK, China, USA
All Genres: Action, Thriller
Plot Outline: A humble businessman with a buried past seeks justice when his daughter is killed in an act of terrorism. A cat-and-mouse conflict ensues with a government official, whose past may hold clues to the killers' identities.
Tagline: Never push a good man too far
Director: Martin Campbell
Writing By: David Marconi,Stephen Leather,
Produced By: Oren Aviv,Phillip Button,Jackie Chan,Cary Cheng,Adam Fogelson,Wayne Marc Godfrey,Defu Jiang,Penny Jiang,Claire Kupchak,Arnaud Lannic,Stephen Leather,Zhao Lei,Dave Li,Karl Li,D. Scott Lumpkin,David Marconi,Jamie Marshall,Jianhong Qi,Arthur M. Sarkissian,Cathy Schulman,Robert Simonds,Sunny Sun,Joe Tam,Donald Tang,Zhongjun Wang,Zhonglei Wang,Andrew Warren,Liu Xinxuan,John Zeng,
Music: Cliff Martinez
Cast:
Katie Leung as Fan
Jackie Chan as Quan Ngoc Minh
Rufus Jones as Ian Wood
Mark Tandy as Simpson
John Cronin as Denis Fisher
Caolan Byrne as McCormick
Donna Bernard as Channel A News Anchor
Aaron Monaghan as Pat Nugent
Niall McNamee as Patrick O'Reilly
Pierce Brosnan as Liam Hennessy
Trailers:
Trailer #2
Trailer #1


Watch-Free-HD     Download

Details
Name:The Foreigner (2017) 720p BDRip x264 ESubs - Original Auds-[Telugu + Tam + Hin + Eng] - 1GB - M...
Description:
The Foreigner (2017) 720p BDRip x264 ESubs - Original Auds-[Telugu + Tam + Hin + Eng] - 1GB - Movcr

 http://www.imdb.com/title/tt1615160/

 
General
Complete name                            : www.movcr.com - The Foreigner (2017) 720p BDRip x264 ESubs - Original Auds-[Telugu + Tam + Hin + Eng] - 1GB - Movcr.mkv
Format                                   : Matroska
Format version                           : Version 4 / Version 2
File size                                : 1.08 GiB
Duration                                 : 1 h 52 min
Overall bit rate mode                    : Variable
Overall bit rate                         : 1 376 kb/s
Movie name                               : www.movcr.com
Encoded date                             : UTC 2018-01-02 09:03:56
Writing application                      : mkvmerge v17.0.0 ('Be Ur Friend') 64-bit
Writing library                          : libebml v1.3.5 + libmatroska v1.4.8

Video
ID                                       : 1
Format                                   : AVC
Format/Info                              : Advanced Video Codec
Format profile                           : [email protected]
Format settings                          : CABAC / 8 Ref Frames
Format settings, CABAC                   : Yes
Format settings, RefFrames               : 8 frames
Codec ID                                 : V_MPEG4/ISO/AVC
Duration                                 : 1 h 52 min
Bit rate                                 : 1 060 kb/s
Width                                    : 1 280 pixels
Height                                   : 528 pixels
Display aspect ratio                     : 2.40:1
Frame rate mode                          : Constant
Frame rate                               : 24.000 FPS
Color space                              : YUV
Chroma subsampling                       : 4:2:0
Bit depth                                : 8 bits
Scan type                                : Progressive
Bits/(Pixel*Frame)                       : 0.065
Stream size                              : 851 MiB (77%)
Title                                    : www.movcr.com
Writing library                          : x264 core 148 r2708 86b7198
Encoding settings                        : cabac=1 / ref=8 / deblock=1:0:0 / analyse=0x3:0x133 / me=umh / subme=9 / psy=1 / psy_rd=1.00:0.00 / mixed_ref=1 / me_range=16 / chroma_me=1 / trellis=2 / 8x8dct=1 / cqm=0 / deadzone=21,11 / fast_pskip=1 / chroma_qp_offset=-2 / threads=16 / lookahead_threads=1 / sliced_threads=0 / nr=0 / decimate=1 / interlaced=0 / bluray_compat=0 / constrained_intra=0 / bframes=3 / b_pyramid=2 / b_adapt=2 / b_bias=0 / direct=3 / weightb=1 / open_gop=0 / weightp=2 / keyint=240 / keyint_min=24 / scenecut=40 / intra_refresh=0 / rc_lookahead=60 / rc=2pass / mbtree=1 / bitrate=1060 / ratetol=1.0 / qcomp=0.60 / qpmin=0 / qpmax=69 / qpstep=4 / cplxblur=20.0 / qblur=0.5 / vbv_maxrate=62500 / vbv_bufsize=78125 / nal_hrd=none / filler=0 / ip_ratio=1.40 / aq=1:1.00
Language                                 : English
Default                                  : Yes
Forced                                   : No
Color range                              : Limited
Color primaries                          : BT.709
Transfer characteristics                 : BT.709
Matrix coefficients                      : BT.709

Audio #1
ID                                       : 2
Format                                   : MPEG Audio
Format version                           : Version 1
Format profile                           : Layer 3
Format settings                          : Joint stereo / MS Stereo
Codec ID                                 : A_MPEG/L3
Codec ID/Hint                            : MP3
Duration                                 : 1 h 52 min
Bit rate mode                            : Variable
Bit rate                                 : 82.8 kb/s
Nominal bit rate                         : 96.0 kb/s
Channel(s)                               : 2 channels
Sampling rate                            : 44.1 kHz
Frame rate                               : 38.281 FPS (1152 SPF)
Compression mode                         : Lossy
Stream size                              : 66.5 MiB (6%)
Title                                    : www.movcr.com
Writing library                          : LAME3.99r
Encoding settings                        : -m j -V 4 -q 3 -lowpass 15.1 --abr 96
Language                                 : Telugu
Default                                  : No
Forced                                   : No

Audio #2
ID                                       : 3
Format                                   : MPEG Audio
Format version                           : Version 1
Format profile                           : Layer 3
Format settings                          : Joint stereo / MS Stereo
Codec ID                                 : A_MPEG/L3
Codec ID/Hint                            : MP3
Duration                                 : 1 h 52 min
Bit rate mode                            : Variable
Bit rate                                 : 82.8 kb/s
Nominal bit rate                         : 96.0 kb/s
Channel(s)                               : 2 channels
Sampling rate                            : 44.1 kHz
Frame rate                               : 38.281 FPS (1152 SPF)
Compression mode                         : Lossy
Stream size                              : 66.5 MiB (6%)
Title                                    : www.movcr.com
Writing library                          : LAME3.99r
Encoding settings                        : -m j -V 4 -q 3 -lowpass 15.1 --abr 96
Language                                 : Tamil
Default                                  : No
Forced                                   : No

Audio #3
ID                                       : 4
Format                                   : MPEG Audio
Format version                           : Version 1
Format profile                           : Layer 3
Format settings                          : Joint stereo / MS Stereo
Codec ID                                 : A_MPEG/L3
Codec ID/Hint                            : MP3
Duration                                 : 1 h 52 min
Bit rate mode                            : Variable
Bit rate                                 : 82.9 kb/s
Nominal bit rate                         : 96.0 kb/s
Channel(s)                               : 2 channels
Sampling rate                            : 44.1 kHz
Frame rate                               : 38.281 FPS (1152 SPF)
Compression mode                         : Lossy
Stream size                              : 66.5 MiB (6%)
Title                                    : www.movcr.com
Writing library                          : LAME3.99r
Encoding settings                        : -m j -V 4 -q 3 -lowpass 15.1 --abr 96
Language                                 : Hindi
Default                                  : Yes
Forced                                   : Yes

Audio #4
ID                                       : 5
Format                                   : AAC
Format/Info                              : Advanced Audio Codec
Format profile                           : HE-AAC / LC
Format settings                          : Explicit
Codec ID                                 : A_AAC-2
Duration                                 : 1 h 52 min
Bit rate                                 : 64.0 kb/s
Channel(s)                               : 2 channels
Channel positions                        : Front: L R
Sampling rate                            : 48.0 kHz / 24.0 kHz
Frame rate                               : 23.438 FPS (1024 SPF)
Compression mode                         : Lossy
Delay relative to video                  : 31 ms
Stream size                              : 51.4 MiB (5%)
Title                                    : www.movcr.com
Language                                 : English
Default                                  : No
Forced                                   : No

Text
ID                                       : 6
Format                                   : UTF-8
Codec ID                                 : S_TEXT/UTF8
Codec ID/Info                            : UTF-8 Plain Text
Duration                                 : 1 h 44 min
Bit rate                                 : 58 b/s
Count of elements                        : 1392
Stream size                              : 45.0 KiB (0%)
Title                                    : www.movcr.com
Language                                 : English
Default                                  : Yes
Forced                                   : No


 
 
 
 
 
 
 
 
Category:Movies > South Dub
Lang:Hindi
Total Size:1.09 GB
Info Hash:3b17e170f352159a6c9eebee3a012bde43a15de0
Added By:MAZE
Date Added:01-01-2018 19:23:11
Views:660
Hits:79

Download Torrent

Ratings:Not Yet Rated (Log in to rate it)


Tracker:
udp://tracker.openbittorrent.com:80/announce


File List: 


Comments

No comments still posted

Powered by 10 Hamsters v2-svn -|- Page Generated In 1.394468 secs.
-|- RSS Feed -|- Feed Info
Theme By: Nikkbu