Mujercitas HDTV 720p AC3 5.1 | Glace HDTV 720p AC3 5.1 | Victoria HDTV 720p AC3 5.1
[Login] or [Signup]
Login
Username:
Password:
[Signup]
[Recover Account]


Poll


You must be logged in to view polls



Torrent Details For "Do Balwaan (Idhu Enna Maayam) (2015) Hindi Dub WEBHD 720p x264 AAC - 900MB - Movcr"

Do Balwaan (Idhu Enna Maayam) (2015) Hindi Dub WEBHD 720p x264 AAC - 900MB - Movcr

Download this torrent | Magnet Download
Health:
Seeds: 281
Leechers: 122
Completed: 1,920 
Last Checked: 03-01-2018 05:57:21
External Torrent
Update Stats
Download Magnet


Poster


iMDB
Imdb Picture Title: Idhu Enna Maayam
Year: 2015
Runtime: 139 minutes
Votes: 212
Rating: 5.4/10
Language: Tamil
Country: India
All Genres: Comedy, Romance
Plot Outline: Arun, a struggling theatre artiste, and his friends start a website that helps men to unite with the women of their dreams. Everything turns upside down when Arun has to put his own love at risk.
Director: Vijay
Writing By: Vijay,A.L. Vijay,
Produced By: R. Sarathkumar,Radhika Sarathkumar,Listin Stephen,
Music: G.V. Prakash Kumar
Cast:
Vikram Prabhu as Arun
Navdeep as Santhosh
Keerthi Suresh as Maya
Kavya Shetty as Pallavi
Luthfudeen Baashaa as Venky
Nassar as
Ambika as Arun's Mother
RJ Balaji as Arun's Friend
Balaji as Bharath
Rj Ajay as Karthik


Watch-Free-HD     Download

Details
Name:Do Balwaan (Idhu Enna Maayam) (2015) Hindi Dub WEBHD 720p x264 AAC - 900MB - Movcr
Description:
Do Balwaan (Idhu Enna Maayam) (2015) Hindi Dub WEBHD 720p x264 AAC - 900MB - Movcr
 http://www.imdb.com/title/tt4903366/

 
General
Complete name                            : www.Movcr.com - Do Balwaan (Idhu Enna Maayam) (2015) Hindi Dub WEBHD 720p x264 AAC - 900MB - Movcr.mkv
Format                                   : Matroska
Format version                           : Version 4 / Version 2
File size                                : 919 MiB
Duration                                 : 2 h 11 min
Overall bit rate                         : 975 kb/s
Movie name                               : www.Movcr.com
Encoded date                             : UTC 2018-01-01 17:10:53
Writing application                      : mkvmerge v17.0.0 ('Be Ur Friend') 64-bit
Writing library                          : libebml v1.3.5 + libmatroska v1.4.8 / IDMmkvlib0.1
Language                                 : und

Video
ID                                       : 1
Format                                   : VP9
Codec ID                                 : V_VP9
Duration                                 : 2 h 11 min
Bit rate                                 : 848 kb/s
Width                                    : 1 280 pixels
Height                                   : 720 pixels
Display aspect ratio                     : 16:9
Frame rate mode                          : Constant
Frame rate                               : 25.000 FPS
Bits/(Pixel*Frame)                       : 0.037
Stream size                              : 799 MiB (87%)
Title                                    : www.Movcr.com
Default                                  : Yes
Forced                                   : No

Audio
ID                                       : 2
Format                                   : Opus
Codec ID                                 : A_OPUS
Duration                                 : 2 h 11 min
Bit rate                                 : 125 kb/s
Channel(s)                               : 2 channels
Channel positions                        : Front: L R
Sampling rate                            : 48.0 kHz
Frame rate                               : 50.000 FPS (960 SPF)
Compression mode                         : Lossy
Stream size                              : 118 MiB (13%)
Title                                    : www.Movcr.com
Language                                 : Hindi
Default                                  : Yes
Forced                                   : No


 
 
 
 
 
 
 
Category:Movies > South Dub
Lang:Hindi
Total Size:919.26 MB
Info Hash:78734843ec9d274f96c5c0f55fa067baebffee9c
Added By:MAZE
Date Added:01-01-2018 03:26:08
Views:1,941
Hits:241

Download Torrent

Ratings:Not Yet Rated (Log in to rate it)


Tracker:
udp://tracker.openbittorrent.com:80/announce


File List: 


Comments

No comments still posted

Powered by 10 Hamsters v2-svn -|- Page Generated In 1.300681 secs.
-|- RSS Feed -|- Feed Info
Theme By: Nikkbu