AuroraVid | OpenLoadHD | TheVideo
[Login] or [Signup]
Login
Username:
Password:
[Signup]
[Recover Account]


Poll


You must be logged in to view polls



Torrent Details For "Mere Badle Ki Taaqat(Pataki)(2017) Hindi Dubbed 720p WEBHD x264 AAC - 1.6GB - Movcr"

Mere Badle Ki Taaqat(Pataki)(2017) Hindi Dubbed 720p WEBHD x264 AAC - 1.6GB - Movcr

Download this torrent | Magnet Download
Health:
Seeds: 392
Leechers: 451
Completed: 414 
Last Checked: 01-01-2018 04:21:29
External Torrent
Update Stats
Download Magnet


Poster


iMDB
Imdb Picture Title: Pataki
Year: 2017
Runtime: 140 minutes
Votes: 121
Rating: 7.7/10
Language: Kannada
Country: India
All Genres: Action, Comedy
Plot Outline: Surya is a corrupt IPS officer and he misuses his power to gain monetary benefits in unorthodox methods. During this process he also encourages a local MP named Rudra Pratap who has become a huge headache to Agni.
Director: Manju Swaraj
Writing By: Prakash Jadeya,Anil Ravipudi,Manju Swaraj,
Produced By: Babu Sv,
Music: Arjun Janya
Cast:
Ganesh as Surya
Saikumar as Agni
Ashish Vidyarthi as Rudra Pratap
Ranya Rao as Sangeetha
Priyanka Thimmesh as Manvitha
Sadhu Kokila as Basanthi
Kuri Prathap as Prakash
Rockline Sudhakar as Sudakara
Mohan Juneja as Prabhakara
Trailers:
Pataki Trailer


Watch-Free-HD     Download

Details
Name:Mere Badle Ki Taaqat(Pataki)(2017) Hindi Dubbed 720p WEBHD x264 AAC - 1.6GB - Movcr
Description:
Mere Badle Ki Taaqat(Pataki)(2017) Hindi Dubbed 720p WEBHD x264 AAC - 1.6GB - Movcr

 http://www.imdb.com/title/tt6672238/
eneral
Complete name                            : www.movcr.com - Mere Badle Ki Taaqat(Pataki)(2017) Hindi Dubbed 720p WEBHD x264 AAC - 1.6GB - Movcr.mkv
Format                                   : Matroska
Format version                           : Version 4 / Version 2
File size                                : 1.69 GiB
Duration                                 : 2 h 19 min
Overall bit rate                         : 1 732 kb/s
Movie name                               : www.movcr.com Exclusive - Register For Exclusive Updates
Encoded date                             : UTC 2017-12-31 20:55:28
Writing application                      : mkvmerge v17.0.0 ('Be Ur Friend') 64-bit
Writing library                          : libebml v1.3.5 + libmatroska v1.4.8

Video
ID                                       : 1
Format                                   : AVC
Format/Info                              : Advanced Video Codec
Format profile                           : [email protected]
Format settings                          : CABAC / 3 Ref Frames
Format settings, CABAC                   : Yes
Format settings, RefFrames               : 3 frames
Codec ID                                 : V_MPEG4/ISO/AVC
Duration                                 : 2 h 19 min
Bit rate                                 : 1 605 kb/s
Width                                    : 1 280 pixels
Height                                   : 720 pixels
Display aspect ratio                     : 16:9
Frame rate mode                          : Constant
Frame rate                               : 24.000 FPS
Color space                              : YUV
Chroma subsampling                       : 4:2:0
Bit depth                                : 8 bits
Scan type                                : Progressive
Bits/(Pixel*Frame)                       : 0.073
Stream size                              : 1.56 GiB (93%)
Title                                    : www.movcr.com Exclusive
Default                                  : Yes
Forced                                   : No
Color range                              : Limited
Color primaries                          : BT.709
Transfer characteristics                 : BT.709
Matrix coefficients                      : BT.709

Audio
ID                                       : 2
Format                                   : AAC
Format/Info                              : Advanced Audio Codec
Format profile                           : LC
Codec ID                                 : A_AAC-2
Duration                                 : 2 h 19 min
Bit rate                                 : 126 kb/s
Channel(s)                               : 2 channels
Channel positions                        : Front: L R
Sampling rate                            : 44.1 kHz
Frame rate                               : 43.066 FPS (1024 SPF)
Compression mode                         : Lossy
Delay relative to video                  : 85 ms
Stream size                              : 125 MiB (7%)
Title                                    : www.movcr.com Exclusive
Language                                 : Hindi
Default                                  : Yes
Forced                                   : No

 
 
 
 
 
 
 
 
 
Category:Movies > South Dub
Lang:Hindi
Total Size:1.69 GB
Info Hash:6c08fdc2852f4c210fa77ed8973dd75d8d1dbe4e
Added By:MAZE
Date Added:31-12-2017 07:10:11
Views:1,618
Hits:199

Download Torrent

Ratings:Not Yet Rated (Log in to rate it)


Tracker:
udp://tracker.openbittorrent.com:80/announce


File List: 


Comments

No comments still posted

Powered by 10 Hamsters v2-svn -|- Page Generated In 1.357826 secs.
-|- RSS Feed -|- Feed Info
Theme By: Nikkbu