Örümcek-Adam: Eve Dönüş Filminden Yeni Poster Geldi! | Colin Donnell | Greg Berlanti
[Login] or [Signup]
Login
Username:
Password:
[Signup]
[Recover Account]


Poll


You must be logged in to view polls



Torrent Details For "Cheetah The Leopard (Rebel) (2012) Hindi Dubbed HDTVRip x264 AAC - 750MB - Movcr"

Cheetah The Leopard (Rebel) (2012) Hindi Dubbed HDTVRip x264 AAC - 750MB - Movcr

Download this torrent | Magnet Download
Health:
Seeds: 154
Leechers: 134
Completed: 387 
Last Checked: 01-01-2018 07:26:29
External Torrent
Update Stats
Download Magnet


Poster


iMDB
Title: Rebel
Year: 2012
Language: Kannada
Country: India
All Genres: Action
Director: Rajendra Singh Babu

Produced By: Aaditya Singh,
Cast:
Aditya as
Preetika Rao as
Sadhu Kokila as
Sanjjanaa Archana Galrani as


Watch-Free-HD     Download

Details
Name:Cheetah The Leopard (Rebel) (2012) Hindi Dubbed HDTVRip x264 AAC - 750MB - Movcr
Description:
Cheetah The Leopard (Rebel) (2012) Hindi Dubbed HDTVRip x264 AAC - 750MB - Movcr

 http://www.imdb.com/title/tt2487394/
 
General
Complete name                            : www.movcr.com - Cheetah The Leopard (Rebel) (2012) Hindi Dubbed HDTVRip x264 AAC - 750MB - Movcr.mkv
Format                                   : Matroska
Format version                           : Version 4 / Version 2
File size                                : 735 MiB
Duration                                 : 1 h 56 min
Overall bit rate                         : 880 kb/s
Movie name                               : www.movcr.com - Register For Exclusive Updates
Encoded date                             : UTC 2017-12-31 20:24:07
Writing application                      : mkvmerge v17.0.0 ('Be Ur Friend') 64-bit
Writing library                          : libebml v1.3.5 + libmatroska v1.4.8

Video
ID                                       : 1
Format                                   : AVC
Format/Info                              : Advanced Video Codec
Format profile                           : [email protected]
Format settings                          : CABAC / 4 Ref Frames
Format settings, CABAC                   : Yes
Format settings, RefFrames               : 4 frames
Codec ID                                 : V_MPEG4/ISO/AVC
Duration                                 : 1 h 56 min
Bit rate                                 : 792 kb/s
Width                                    : 768 pixels
Height                                   : 576 pixels
Display aspect ratio                     : 4:3
Frame rate mode                          : Variable
Frame rate                               : 25.000 FPS
Color space                              : YUV
Chroma subsampling                       : 4:2:0
Bit depth                                : 8 bits
Scan type                                : Progressive
Bits/(Pixel*Frame)                       : 0.072
Stream size                              : 666 MiB (91%)
Title                                    : www.movcr.com
Writing library                          : x264 core 148 r2643 5c65704
Encoding settings                        : cabac=1 / ref=1 / deblock=1:0:0 / analyse=0x3:0x3 / me=dia / subme=1 / psy=1 / psy_rd=1.00:0.00 / mixed_ref=0 / me_range=16 / chroma_me=1 / trellis=0 / 8x8dct=1 / cqm=0 / deadzone=21,11 / fast_pskip=1 / chroma_qp_offset=0 / threads=12 / lookahead_threads=2 / sliced_threads=0 / nr=0 / decimate=1 / interlaced=0 / bluray_compat=0 / constrained_intra=0 / bframes=3 / b_pyramid=2 / b_adapt=1 / b_bias=0 / direct=1 / weightb=1 / open_gop=0 / weightp=1 / keyint=250 / keyint_min=25 / scenecut=40 / intra_refresh=0 / rc=abr / mbtree=0 / bitrate=792 / ratetol=1.0 / qcomp=0.60 / qpmin=0 / qpmax=69 / qpstep=4 / ip_ratio=1.40 / pb_ratio=1.30 / aq=1:1.00
Language                                 : English
Default                                  : Yes
Forced                                   : No

Audio
ID                                       : 2
Format                                   : AAC
Format/Info                              : Advanced Audio Codec
Format profile                           : LC
Codec ID                                 : A_AAC-2
Duration                                 : 1 h 56 min
Bit rate                                 : 80.0 kb/s
Channel(s)                               : 1 channel
Channel positions                        : Front: C
Sampling rate                            : 44.1 kHz
Frame rate                               : 43.066 FPS (1024 SPF)
Compression mode                         : Lossy
Stream size                              : 66.8 MiB (9%)
Title                                    : www.movcr.com
Language                                 : Hindi
Default                                  : Yes
Forced                                   : No


             
Category:Movies > South Dub
Lang:Hindi
Total Size:734.98 MB
Info Hash:0e5e78f7d7db7b710d2301ef3d77ac5c3eb7c5bb
Added By:MAZE
Date Added:31-12-2017 06:43:31
Views:1,475
Hits:205

Download Torrent

Ratings:Not Yet Rated (Log in to rate it)


Tracker:
udp://tracker.openbittorrent.com:80/announce


File List: 


Comments

No comments still posted

Powered by 10 Hamsters v2-svn -|- Page Generated In 1.221358 secs.
-|- RSS Feed -|- Feed Info
Theme By: Nikkbu