Graphics | The Barnstone Method - Drawing Course | Session 3 Interactive sessions
[Login] or [Signup]
Login
Username:
Password:
[Signup]
[Recover Account]


Poll


You must be logged in to view polls



Torrent Details For "Target Killing (Krishnashtami) (2016) Hindi Dubbed HDTVRip x264 AAC 700MB - Movcr Exclusive"

Target Killing (Krishnashtami) (2016) Hindi Dubbed HDTVRip x264 AAC 700MB - Movcr Exclusive

Download this torrent | Magnet Download
Health:
Seeds: 241
Leechers: 92
Completed: 2,031 
Last Checked: 03-01-2018 07:08:38
External Torrent
Update Stats
Download Magnet


Poster


iMDB
Imdb Picture Title: Krishnashtami
Year: 2016
Runtime: 160 minutes
Votes: 19
Rating: 5.1/10
Language: Telugu
Country: India
All Genres: Action, Comedy, Romance
Plot Outline: Krishnashtami tells the story of an NRI who returns to India with a definite purpose. This romantic entertainer is told with large doses of comedy, romance and family values.
Director: Vasu Varma

Produced By: Lakshman,Dil Raju,Sireesh,
Music: Dinesh
Cast:
Brahmanandam as
Dimple Chopda as
Nikki Galrani as Pallavi
Pavithra Lokesh as
Krishna Murali Posani as
Ashutosh Rana as
Mukesh Rishi as
Suneel as Krishna
Tulasi as
Chandu Zuckerberg as


Watch-Free-HD     Download

Details
Name:Target Killing (Krishnashtami) (2016) Hindi Dubbed HDTVRip x264 AAC 700MB - Movcr Exclusive
Description:
Target Killing (Krishnashtami) (2016) Hindi Dubbed HDTVRip x264 AAC 700MB - Movcr Exclusive


 http://www.imdb.com/title/tt5572890/

 
General
Complete name                            : www.Movcr.com - Target Killing (2017) Hindi Dubbed HDTVRip x264 AAC 700MB - Movcr Exclusive.mkv
Format                                   : Matroska
Format version                           : Version 4 / Version 2
File size                                : 678 MiB
Duration                                 : 1 h 53 min
Overall bit rate                         : 835 kb/s
Movie name                               : www.Movcr.com - Register For More Exclusive Updates
Encoded date                             : UTC 2017-12-31 17:38:36
Writing application                      : mkvmerge v17.0.0 ('Be Ur Friend') 64-bit
Writing library                          : libebml v1.3.5 + libmatroska v1.4.8

Video
ID                                       : 1
Format                                   : AVC
Format/Info                              : Advanced Video Codec
Format profile                           : [email protected]
Format settings                          : 1 Ref Frames
Format settings, CABAC                   : No
Format settings, RefFrames               : 1 frame
Format settings, GOP                     : M=1, N=30
Codec ID                                 : V_MPEG4/ISO/AVC
Duration                                 : 1 h 53 min
Bit rate                                 : 693 kb/s
Width                                    : 864 pixels
Height                                   : 480 pixels
Display aspect ratio                     : 16:9
Frame rate mode                          : Variable
Frame rate                               : 29.910 FPS
Standard                                 : NTSC
Color space                              : YUV
Chroma subsampling                       : 4:2:0
Bit depth                                : 8 bits
Scan type                                : Progressive
Bits/(Pixel*Frame)                       : 0.056
Stream size                              : 563 MiB (83%)
Title                                    : www.Movcr.com
Default                                  : Yes
Forced                                   : No
Color range                              : Limited
Color primaries                          : BT.601 PAL
Transfer characteristics                 : BT.601
Matrix coefficients                      : BT.601

Audio
ID                                       : 2
Format                                   : AAC
Format/Info                              : Advanced Audio Codec
Format profile                           : LC
Codec ID                                 : A_AAC-2
Duration                                 : 1 h 53 min
Bit rate                                 : 138 kb/s
Channel(s)                               : 2 channels
Channel positions                        : Front: L R
Sampling rate                            : 44.1 kHz
Frame rate                               : 43.066 FPS (1024 SPF)
Compression mode                         : Lossy
Delay relative to video                  : -33 ms
Stream size                              : 112 MiB (17%)
Title                                    : www.Movcr.com
Language                                 : Hindi
Default                                  : Yes
Forced                                   : No

                           
Category:Movies > South Dub
Lang:Hindi
Total Size:678.49 MB
Info Hash:2c84ce6f1a696a9abf794db04995a717a139b058
Added By:MAZE
Date Added:31-12-2017 04:38:49
Views:2,895
Hits:382

Download Torrent

Ratings:Not Yet Rated (Log in to rate it)


Tracker:
udp://tracker.openbittorrent.com:80/announce


File List: 


Comments

No comments still posted

Powered by 10 Hamsters v2-svn -|- Page Generated In 2.506990 secs.
-|- RSS Feed -|- Feed Info
Theme By: Nikkbu