11.A Christmas Carol (2009) | 12.Jingle All the Way (1996) | 13.The Santa Clause (1994)
[Login] or [Signup]
Login
Username:
Password:
[Signup]
[Recover Account]


Poll


You must be logged in to view polls



Torrent Details For "The Forbidden Kingdom (2008) 720p BluRay x264 -[Dual Audio]-[Hindi(Org) +English] - ESubs - 800..."

The Forbidden Kingdom (2008) 720p BluRay x264 -[Dual Audio]-[Hindi(Org) +English] - ESubs - 800...

Download this torrent | Magnet Download
Health:
Seeds: 0
Leechers: 0
Completed:
Last Checked: 30-12-2017 15:02:32
External Torrent
Update Stats
Download Magnet


Poster


iMDB
Imdb Picture Title: The Forbidden Kingdom
Year: 2008
Runtime: 104 minutes
Votes: 92257
Rating: 6.6/10
Language: English, Mandarin
Country: USA, China
All Genres: Action, Adventure, Fantasy
Plot Outline: A discovery made by a kung fu obsessed American teen sends him on an adventure to China, where he joins up with a band of martial arts warriors in order to free the imprisoned Monkey King.
Tagline: The path is unsafe. The place is unknown. The journey is unbelievable.
Director: Rob Minkoff
Writing By: John Fusco,
Produced By: Willie Chan,Steven Chasman,Nai Liang Chi,Raffaella De Laurentiis,Ted Duran,Scott Fischer,Hester Hargett,Ryan Kavanaugh,David U. Lee,Philip Lee,Jason C. Lin,Bey Logan,Michael Paseornek,Casey Silver,Solon So,Lynwood Spinks,Mathew Tang,Zhongjun Wang,Woo-Ping Yuen,Billy Badalato,
Music: David Buckley
Cast:
Jet Li as The Monkey King / The Silent Monk
Michael Angarano as Jason Tripitikas
Jackie Chan as Lu Yan / Old Hop
Juana Collignon as Southie Girl
Morgan Benoit as Lupo
Jack Posobiec as Southie
Thomas McDonell as Young Southie
Zhi Ma Gui as Old Woman
Shen Shou He as Farmer
Bin Jiang as Young Village Man
Trailers:
The Forbidden Kingdom


Watch-Free-HD     Download

Details
Name:The Forbidden Kingdom (2008) 720p BluRay x264 -[Dual Audio]-[Hindi(Org) +English] - ESubs - 800...
Description:
The Forbidden Kingdom (2008) 720p BluRay x264 -[Dual Audio]-[Hindi(Org) +English] - ESubs - 800MB - Movcr

 

 http://www.imdb.com/title/tt0865556/

General
Complete name                            : www.movcr.com - The Forbidden Kingdom (2008) 720p BluRay x264 -[Dual Audio]-[Hindi(Org) +English] - 800MB - Movcr.mkv
Format                                   : Matroska
Format version                           : Version 4 / Version 2
File size                                : 758 MiB
Duration                                 : 1 h 44 min
Overall bit rate                         : 1 015 kb/s
Movie name                               : www.movcr.com
Encoded date                             : UTC 2017-12-31 04:40:23
Writing application                      : mkvmerge v17.0.0 ('Be Ur Friend') 64-bit
Writing library                          : libebml v1.3.5 + libmatroska v1.4.8

Video
ID                                       : 1
Format                                   : AVC
Format/Info                              : Advanced Video Codec
Format profile                           : [email protected]
Format settings                          : CABAC / 5 Ref Frames
Format settings, CABAC                   : Yes
Format settings, RefFrames               : 5 frames
Codec ID                                 : V_MPEG4/ISO/AVC
Duration                                 : 1 h 44 min
Bit rate                                 : 824 kb/s
Width                                    : 1 280 pixels
Height                                   : 532 pixels
Display aspect ratio                     : 2.40:1
Frame rate mode                          : Constant
Frame rate                               : 23.976 (24000/1001) FPS
Color space                              : YUV
Chroma subsampling                       : 4:2:0
Bit depth                                : 8 bits
Scan type                                : Progressive
Bits/(Pixel*Frame)                       : 0.050
Stream size                              : 603 MiB (80%)
Title                                    : www.movcr.com
Writing library                          : x264 core 138 r2358 9e941d1
Encoding settings                        : cabac=1 / ref=5 / deblock=1:0:0 / analyse=0x3:0x113 / me=umh / subme=7 / psy=1 / psy_rd=1.00:0.00 / mixed_ref=1 / me_range=16 / chroma_me=1 / trellis=1 / 8x8dct=1 / cqm=0 / deadzone=21,11 / fast_pskip=1 / chroma_qp_offset=-2 / threads=12 / lookahead_threads=2 / sliced_threads=0 / nr=0 / decimate=1 / interlaced=0 / bluray_compat=0 / constrained_intra=0 / bframes=3 / b_pyramid=2 / b_adapt=1 / b_bias=0 / direct=3 / weightb=1 / open_gop=0 / weightp=2 / keyint=240 / keyint_min=23 / scenecut=40 / intra_refresh=0 / rc_lookahead=40 / rc=2pass / mbtree=1 / bitrate=824 / ratetol=1.0 / qcomp=0.60 / qpmin=10 / qpmax=51 / qpstep=4 / cplxblur=20.0 / qblur=0.5 / ip_ratio=1.40 / aq=2:1.00
Default                                  : Yes
Forced                                   : No

Audio #1
ID                                       : 2
Format                                   : AAC
Format/Info                              : Advanced Audio Codec
Format profile                           : LC
Codec ID                                 : A_AAC-2
Duration                                 : 1 h 44 min
Bit rate                                 : 80.0 kb/s
Channel(s)                               : 2 channels
Channel positions                        : Front: L R
Sampling rate                            : 48.0 kHz
Frame rate                               : 46.875 FPS (1024 SPF)
Compression mode                         : Lossy
Delay relative to video                  : 9 ms
Stream size                              : 59.8 MiB (8%)
Title                                    : www.movcr.com
Language                                 : Hindi
Default                                  : Yes
Forced                                   : Yes

Audio #2
ID                                       : 3
Format                                   : AAC
Format/Info                              : Advanced Audio Codec
Format profile                           : HE-AAC / LC
Format settings                          : Explicit
Codec ID                                 : A_AAC-2
Duration                                 : 1 h 44 min
Bit rate                                 : 125 kb/s
Channel(s)                               : 6 channels
Channel positions                        : Front: L C R, Side: L R, LFE
Sampling rate                            : 48.0 kHz / 24.0 kHz
Frame rate                               : 23.438 FPS (1024 SPF)
Compression mode                         : Lossy
Delay relative to video                  : 31 ms
Stream size                              : 93.3 MiB (12%)
Title                                    : www.movcr.com
Language                                 : English
Default                                  : No
Forced                                   : No


                       
Category:Movies > South Dub
Lang:Hindi
Total Size:783.42 MB
Info Hash:ea5008c1e87f61909ef5c1d97daf1d103480bc1e
Added By:MAZE
Date Added:30-12-2017 15:02:32
Views:856
Hits:36

Download Torrent

Ratings:Not Yet Rated (Log in to rate it)


Tracker:
udp://tracker.openbittorrent.com:80/announce


File List: 


Comments

No comments still posted

Powered by 10 Hamsters v2-svn -|- Page Generated In 1.611626 secs.
-|- RSS Feed -|- Feed Info
Theme By: Nikkbu