Kimcheed Radish Cubes | King of Food | King of High School
[Login] or [Signup]
Login
Username:
Password:
[Signup]
[Recover Account]


Poll


You must be logged in to view polls



Torrent Details For "Khatarnaak Aashiq (Oke Okka Chance)(2013) Hindi Dubbed 720p WEBHD x264 AAC - 900MB - Movcr"

Khatarnaak Aashiq (Oke Okka Chance)(2013) Hindi Dubbed 720p WEBHD x264 AAC - 900MB - Movcr

Download this torrent | Magnet Download
Health:
Seeds: 0
Leechers: 0
Completed:
Last Checked: 30-12-2017 14:23:56
External Torrent
Update Stats
Download Magnet


Poster


Watch-Free-HD     Download

Details
Name:Khatarnaak Aashiq (Oke Okka Chance)(2013) Hindi Dubbed 720p WEBHD x264 AAC - 900MB - Movcr
Description:
Khatarnaak Aashiq (Oke Okka Chance)(2013) Hindi Dubbed 720p WEBHD x264 AAC - 900MB - Movcr.

 
General
Complete name                            : www.Movcr.com - Khatarnaak Aashiq (Oke Okka Chance)(2013) Hindi Dubbed 720p WEBHD x264 AAC - 900MB - Movcr.mkv
Format                                   : Matroska
Format version                           : Version 4 / Version 2
File size                                : 923 MiB
Duration                                 : 1 h 43 min
Overall bit rate                         : 1 252 kb/s
Movie name                               : www.Movcr.com
Encoded date                             : UTC 2017-12-31 03:42:36
Writing application                      : mkvmerge v17.0.0 ('Be Ur Friend') 64-bit
Writing library                          : libebml v1.3.5 + libmatroska v1.4.8 / IDMmkvlib0.1
Language                                 : und

Video
ID                                       : 1
Format                                   : VP9
Codec ID                                 : V_VP9
Duration                                 : 1 h 43 min
Bit rate                                 : 1 143 kb/s
Width                                    : 1 280 pixels
Height                                   : 720 pixels
Display aspect ratio                     : 16:9
Frame rate mode                          : Constant
Frame rate                               : 25.000 FPS
Bits/(Pixel*Frame)                       : 0.050
Stream size                              : 843 MiB (91%)
Title                                    : www.Movcr.com
Default                                  : Yes
Forced                                   : No

Audio
ID                                       : 2
Format                                   : Opus
Codec ID                                 : A_OPUS
Duration                                 : 1 h 43 min
Bit rate                                 : 106 kb/s
Channel(s)                               : 2 channels
Channel positions                        : Front: L R
Sampling rate                            : 48.0 kHz
Frame rate                               : 50.000 FPS (960 SPF)
Compression mode                         : Lossy
Stream size                              : 78.2 MiB (8%)
Title                                    : www.Movcr.com
Language                                 : Hindi
Default                                  : Yes
Forced                                   : No


 
 
 
 
 
 
Category:Movies > South Dub
Lang:Hindi
Total Size:923.11 MB
Info Hash:f3eec3155c2d300802730bfb74401fcd529a8583
Added By:MAZE
Date Added:30-12-2017 14:23:56
Views:1,166
Hits:96

Download Torrent

Ratings:Not Yet Rated (Log in to rate it)


Tracker:
udp://tracker.openbittorrent.com:80/announce


File List: 


Comments

No comments still posted

Powered by 10 Hamsters v2-svn -|- Page Generated In 1.168153 secs.
-|- RSS Feed -|- Feed Info
Theme By: Nikkbu