2 more turbobit, uploadgig, nitroflare links | 2 more turbobit, uploadgig, nitroflare links | 2 more turbobit, uploadgig, nitroflare links
[Login] or [Signup]
Login
Username:
Password:
[Signup]
[Recover Account]


Poll


You must be logged in to view polls



Torrent Details For "Kaashmora 2 (Aayirathil Oruvan)(2017) Hindi Dub 720p WEBHD x264 AAC - ESubs - 1GB - Movcr"

Kaashmora 2 (Aayirathil Oruvan)(2017) Hindi Dub 720p WEBHD x264 AAC - ESubs - 1GB - Movcr

Download this torrent | Magnet Download
Health:
Seeds: 62
Leechers: 22
Completed: 1,708 
Last Checked: 10-01-2018 11:34:55
External Torrent
Update Stats
Download Magnet


Poster


iMDB
Imdb Picture Title: Ayirathil Oruvan
Year: 2010
Runtime: 183 minutes
Votes: 2165
Rating: 7.6/10
Language: Tamil
Country: India
All Genres: Action, Adventure, Fantasy, History, Mystery, Sci-Fi, Thriller
Plot Outline: Chandramouli, a famous archaeologist, goes missing while on a research expedition. Anitha, a government officer, and Lavanya, Chandramouli's daughter, embark on an adventurous journey to find him.
Tagline: A Journey to an Unexplored World
Director: K. Selvaraghavan
Writing By: K. Selvaraghavan,
Produced By: R. Ravindran,
Music: G.V. Prakash Kumar
Cast:
Karthi as Muthu
Reema Sen as Anita Pandian
Andrea Jeremiah as Lavanya
Parthiban as Chozhan / Chola King
Azhagam Perumal as Major Ravisekhara Pandian
Prathap Pothen as Lavanya's father


Watch-Free-HD     Download

Details
Name:Kaashmora 2 (Aayirathil Oruvan)(2017) Hindi Dub 720p WEBHD x264 AAC - ESubs - 1GB - Movcr
Description:
Kaashmora 2 (Aayirathil Oruvan)(2017) Hindi Dub 720p WEBHD x264 AAC - ESubs - 1GB - Movcr

 http://www.imdb.com/title/tt1512888/
General
Complete name                            : www.Movcr.com - Kaashmora 2 (Aayirathil Oruvan)(2017) Hindi Dub 720p WEBHD x264 AAC - ESubs - 1GB - Movcr.mkv
Format                                   : Matroska
Format version                           : Version 4 / Version 2
File size                                : 1.05 GiB
Duration                                 : 2 h 6 min
Overall bit rate                         : 1 189 kb/s
Movie name                               : www.Movcr.com
Encoded date                             : UTC 2017-12-30 06:52:23
Writing application                      : mkvmerge v17.0.0 ('Be Ur Friend') 64-bit
Writing library                          : libebml v1.3.5 + libmatroska v1.4.8 / IDMmkvlib0.1
Language                                 : und

Video
ID                                       : 1
Format                                   : VP9
Codec ID                                 : V_VP9
Duration                                 : 2 h 6 min
Bit rate                                 : 1 067 kb/s
Width                                    : 1 280 pixels
Height                                   : 720 pixels
Display aspect ratio                     : 16:9
Frame rate mode                          : Constant
Frame rate                               : 25.000 FPS
Bits/(Pixel*Frame)                       : 0.046
Stream size                              : 968 MiB (90%)
Title                                    : www.Movcr.com
Default                                  : Yes
Forced                                   : No

Audio
ID                                       : 2
Format                                   : Opus
Codec ID                                 : A_OPUS
Duration                                 : 2 h 6 min
Bit rate                                 : 120 kb/s
Channel(s)                               : 2 channels
Channel positions                        : Front: L R
Sampling rate                            : 48.0 kHz
Frame rate                               : 50.000 FPS (960 SPF)
Compression mode                         : Lossy
Stream size                              : 109 MiB (10%)
Title                                    : www.Movcr.com
Default                                  : Yes
Forced                                   : No

Text
ID                                       : 3
Format                                   : UTF-8
Codec ID                                 : S_TEXT/UTF8
Codec ID/Info                            : UTF-8 Plain Text
Duration                                 : 2 h 6 min
Bit rate                                 : 43 b/s
Count of elements                        : 1081
Stream size                              : 40.5 KiB (0%)
Title                                    : www.Movcr.com
Language                                 : English
Default                                  : Yes
Forced                                   : No


 
 
 
 
 
 
 
Category:Movies > South Dub
Lang:Hindi
Total Size:1.08 GB
Info Hash:d92666a32ba80f329e775f866a37669ebc99fb48
Added By:MAZE
Date Added:29-12-2017 17:11:44
Views:1,112
Hits:146

Download Torrent

Ratings:Not Yet Rated (Log in to rate it)


Tracker:
udp://tracker.openbittorrent.com:80/announce


File List: 


Comments

No comments still posted

Powered by 10 Hamsters v2-svn -|- Page Generated In 1.214883 secs.
-|- RSS Feed -|- Feed Info
Theme By: Nikkbu