Read More | uTorrent | uTorrent free download
[Login] or [Signup]
Login
Username:
Password:
[Signup]
[Recover Account]


Poll


You must be logged in to view polls



Torrent Details For "1920 London (2016) 1080p Netflix Rip"

1920 London (2016) 1080p Netflix Rip

Download this torrent | Magnet Download
Health:
Seeds: 0
Leechers: 5
Completed: 1,434 
Last Checked: 20-12-2017 09:50:29
External Torrent
Update Stats
Download Magnet


Poster


iMDB
Imdb Picture Title: 1920 London
Year: 2016
Runtime: 120 minutes
Votes: 1076
Rating: 4.1/10
Language: Hindi
Country: India
All Genres: Horror, Mystery
Plot Outline: After her husband is possessed by an evil spirit, a woman turns to her former lover to perform an exorcism.
Tagline: Fear strikes again
Director: Dharmendra Suresh Desai
Writing By: Vikram Bhatt,Sukhmani Sadana,Girish Dhamija,
Produced By: Patel Cyrus,Cyrus Patel,Sandeep Shandilya,Roshan Singh,
Music: Amar Mohile
Cast:
Sharman Joshi as Jai Singh Gujjar
Meera Chopra as Shivangi
Vishal Karwal as Veer
Surendra Pal as Shivangi's Father
Charu Rohatgi as Shivangi's Mother
Sushmita Mukherjee as Kesar Maa
Siraj Mustafa as Rana Jag Pratap Singh
Jalpa Bhatt as Bua
Jagat Rawat as Kaka
Vishal Malhotra as Surya Pratap


Watch-Free-HD     Download

Details
Name:1920 London (2016) 1080p Netflix Rip
Description:
SPECS

Source: Netflix @ DDR

Format : Matroska

File size : 6.46 GiB

Duration : 1 h 53 min

Overall bit rate : 8 160 kb/s

Video

Format : AVC

Format/Info : Advanced Video Codec

Format profile :

Format settings, CABAC : Yes

Format settings, ReFrames : 5 frames

Codec ID : V_MPEG4/ISO/AVC

Duration : 1 h 53 min

Bit rate : 8 000 kb/s

Width : 1 920 pixels

Height : 816 pixels

Display aspect ratio : 2.35:1

Frame rate mode : Constant

Frame rate : 24.000 FPS

Color space : YUV

Chroma subsampling : 4:2:0

Bit depth : 8 bits

Scan type : Progressive

Bits/(Pixel*Frame) : 0.213

Stream size : 6.33 GiB (98%)

Default : Yes

Forced : No

Color range : Limited

Color primaries : BT.709

Transfer characteristics : BT.709

Matrix coefficients : BT.709

Audio #1

Format : AAC

Format/Info : Advanced Audio Codec

Format profile : LC

Codec ID : A_AAC

Duration : 1 h 53 min

Bit rate : 160 kb/s

Channel(s) : 2 channels

Channel positions : Front: L R

Sampling rate : 48.0 kHz

Frame rate : 46.875 FPS (1024 spf)

Compression mode : Lossy

Delay relative to video : 9 ms

Stream size : 130 MiB (2%)

Language : Hindi

Default : Yes

Forced : No

Chapters : No


SAMPLE Included




A DDR Exclusive Encode
Category:Movies > Bollywood
Lang:Hindi
Total Size:6.51 GB
Info Hash:8f67765a39931a184b0565e86883544738cd0706
Added By:Unknown
Date Added:20-12-2017 09:49:15
Views:531
Hits:40

Download Torrent

Ratings:Not Yet Rated (Log in to rate it)


Tracker:
udp://tracker.coppersurfer.tk:6969/announce


File List: 


Comments

No comments still posted

Powered by 10 Hamsters v2-svn -|- Page Generated In 0.010064 secs.
-|- RSS Feed -|- Feed Info
Theme By: Nikkbu