DVAJ296mp4 | Lexie Miller | The Concubine
[Login] or [Signup]
Login
Username:
Password:
[Signup]
[Recover Account]


Poll


You must be logged in to view polls



Torrent Details For "Crystal Inferno 2017 720p WEB-DL DD 5.1 x264"

Crystal Inferno 2017 720p WEB-DL DD 5.1 x264

Download this torrent | Magnet Download
Health:
Seeds: 22
Leechers: 65
Completed: 40 
Last Checked: 05-12-2017 09:57:24
External Torrent
Update Stats
Download Magnet


Poster


Watch-Free-HD     Download

Details
Name:Crystal Inferno 2017 720p WEB-DL DD 5.1 x264
Description:



General
Format                                   : Matroska
Format version                           : Version 4 / Version 2
File size                                : 958 MiB
Duration                                 : 1 h 32 min
Overall bit rate                         : 1 450 kb/s

Video
ID                                       : 1
Format                                   : AVC
Format/Info                              : Advanced Video Codec
Format profile                           : [email protected]
Format settings                          : CABAC / 4 Ref Frames
Format settings, CABAC                   : Yes
Format settings, RefFrames               : 4 frames
Codec ID                                 : V_MPEG4/ISO/AVC
Duration                                 : 1 h 32 min
Bit rate                                 : 1 200 kb/s
Width                                    : 1 280 pixels
Height                                   : 718 pixels
Display aspect ratio                     : 16:9
Frame rate mode                          : Constant
Frame rate                               : 23.976 (23976/1000) FPS
Color space                              : YUV
Chroma subsampling                       : 4:2:0
Bit depth                                : 8 bits
Scan type                                : Progressive
Bits/(Pixel*Frame)                       : 0.054
Stream size                              : 788 MiB (82%)
Writing library                          : x264 core 148 r2643 5c65704
Language                                 : English
Default                                  : Yes
Forced                                   : No

Audio
ID                                       : 2
Format                                   : AC-3
Format/Info                              : Audio Coding 3
Format settings, Endianness              : Big
Codec ID                                 : A_AC3
Duration                                 : 1 h 32 min
Bit rate mode                            : Constant
Bit rate                                 : 256 kb/s
Channel(s)                               : 6 channels
Channel positions                        : Front: L C R, Side: L R, LFE
Sampling rate                            : 48.0 kHz
Frame rate                               : 31.250 FPS (1536 SPF)
Bit depth                                : 16 bits
Compression mode                         : Lossy
Stream size                              : 169 MiB (18%)
Language                                 : English
Service kind                             : Complete Main
Default                                  : Yes
Forced                                   : No








Category:Movies > HDRips
Lang:English  English
Total Size:958.10 MB
Info Hash:e4e9a90063114d73f483e663ac9a4d23d54a25cf
Added By:Freaky
Date Added:05-12-2017 09:56:59
Views:52
Hits:6

Download Torrent

Ratings:Not Yet Rated (Log in to rate it)


Tracker:
http://ipv4.tracker.harry.lu/announce

This Torrent also has backup trackers
URLSeedersLeechersCompleted
http://ipv4.tracker.harry.lu/announce288
http://ipv4.tracker.harry.lu:80/announce288
http://tracker.electro-torrent.pl/announce260
http://tracker.electro-torrent.pl:80/announce260
http://retracker.mgts.by:80/announce285
http://pt.lax.mx:80/announce000
http://tracker.torrentyorg.pl:80/announce260
http://163.172.180.68/announce298
http://82.209.230.66/announce285
http://107.174.238.55:80/announce000
http://t.nyaatracker.com/announce000
http://t.nyaatracker.com:80/announce000


File List: 


Comments

No comments still posted

Powered by 10 Hamsters v2-svn -|- Page Generated In 0.403232 secs.
-|- RSS Feed -|- Feed Info
Theme By: Nikkbu