Badi Devrani | Killer Karaoke | Tujhse Naaraz Nahi Zindagi
[Login] or [Signup]
Login
Username:
Password:
[Signup]
[Recover Account]


Poll


You must be logged in to view polls



Torrent Details For "Raagini (2017) - Zee Bangla Cinema - HDTV Rip [x264 - AC3(5.1Ch)] - 450MB"

Raagini (2017) - Zee Bangla Cinema - HDTV Rip [x264 - AC3(5.1Ch)] - 450MB

Download this torrent | Magnet Download
Health:
Seeds: 0
Leechers: 13
Completed: 11 
Last Checked: 10-12-2017 10:17:03
External Torrent
Update Stats
Download Magnet


Poster


Watch-Free-HD     Download

Details
Name:Raagini (2017) - Zee Bangla Cinema - HDTV Rip [x264 - AC3(5.1Ch)] - 450MB
Description:
  Raagini (2017) - Zee Bangla Cinema - HDTV Rip
[x264 - AC3(5.1Ch)] - 450MB  
 





General
Format                                   : Matroska
Format version                           : Version 2
File size                                : 449 MiB
Duration                                 : 2 h 24 min

Video
ID                                       : 1
Format                                   : AVC
Format/Info                              : Advanced Video Codec
Format profile                           : [email protected]
Format settings                          : CABAC / 4 Ref Frames
Format settings, CABAC                   : Yes
Format settings, RefFrames               : 4 frames
Codec ID                                 : V_MPEG4/ISO/AVC
Duration                                 : 2 h 24 min
Bit rate                                 : 370 kb/s
Width                                    : 560 pixels
Height                                   : 264 pixels
Display aspect ratio                     : 2.121
Frame rate mode                          : Constant
Frame rate                               : 25.000 FPS
Color space                              : YUV
Chroma subsampling                       : 4:2:0
Bit depth                                : 8 bits
Scan type                                : Progressive
Bits/(Pixel*Frame)                       : 0.100
Stream size                              : 382 MiB (85%)

Audio
ID                                       : 2
Format                                   : AAC
Format/Info                              : Advanced Audio Codec
Format profile                           : HE-AAC / LC
Format settings                          : Explicit
Codec ID                                 : A_AAC-2
Duration                                 : 2 h 24 min
Bit rate                                 : 63.8 kb/s
Channel(s)                               : 6 channels
Channel positions                        : Front: L C R, Side: L R, LFE
Sampling rate                            : 48.0 kHz / 24.0 kHz
Frame rate                               : 23.438 FPS (1024 SPF)
Stream size                              : 65.8 MiB (15%)


Thumbnail




Category:Movies > Bengali
Lang:Bengali  Bengali
Total Size:449.37 MB
Info Hash:c13e619addcadebddfb554d5959c886fd121019e
Added By:Pherarim
Date Added:05-12-2017 08:11:15
Views:467
Hits:40

Download Torrent

Ratings:Not Yet Rated (Log in to rate it)


Tracker:
udp://9.rarbg.me:2710/announce


File List: 


Comments

No comments still posted

Powered by 10 Hamsters v2-svn -|- Page Generated In 5.328205 secs.
-|- RSS Feed -|- Feed Info
Theme By: Nikkbu