The Expendables 3 (2014) Dual Audio 720P HD | The Expendables 3 (2014) English 300MB Download | The Face of Love (2013) English 300MB Download
[Login] or [Signup]
Login
Username:
Password:
[Signup]
[Recover Account]


Poll


You must be logged in to view polls



Torrent Details For "Mr. Sukumar (Sukumarudu) 2017"

Mr. Sukumar (Sukumarudu) 2017

Download this torrent | Magnet Download
Health:
Seeds: 0
Leechers: 11
Completed:
Last Checked: 06-11-2017 19:46:34
External Torrent
Update Stats
Download Magnet


Poster


iMDB
Imdb Picture Title: Sukumarudu
Year: 2013
Votes: 53
Rating: 6.0/10
Language: Telugu
Country: India
All Genres: Drama
Director: Ashok G.
Writing By: Chandrasekhar,Ashok G.,
Produced By: K. Venu Gopal,K.V.V. Satyanarayana,
Music: Anoop Rubens
Cast:
Aadi as Sukumar
Nisha Agarwal as Sankari
Krishna Ghattamaneni as
Neelam Upadhyaya as
Sharada as Vardanamma
Brahmanandam as
Gollapudi Maruthi Rao as
Tanikella Bharani as
M.S. Narayana as
Rao Ramesh as SVR


Watch-Free-HD     Download

Details
Name:Mr. Sukumar (Sukumarudu) 2017
Description:

Uploaded By

First On Net By Shanoo

General
Complete name               : Mr. Sukumar (Sukumarudu) 2017
Format                      : MPEG-4
Format profile              : Base Media
Codec ID                    : isom (isom/iso2/avc1/mp41)
File size                   : 744 MiB
Duration                    : 2h 4mn
Overall bit rate mode       : Variable
Overall bit rate            : 836 Kbps
Encoded date                : UTC 2017-11-05 00:58:57
Tagged date                 : UTC 2017-11-05 00:58:57

Video
ID                          : 1
Format                      : AVC
Format/Info                 : Advanced Video Codec
Format profile              : [email protected]
Format settings, CABAC      : Yes
Format settings, ReFrames   : 3 frames
Codec ID                    : avc1
Codec ID/Info               : Advanced Video Coding
Duration                    : 2h 4mn
Bit rate                    : 707 Kbps
Width                       : 854 pixels
Height                      : 480 pixels
Display aspect ratio        : 16:9
Frame rate mode             : Constant
Frame rate                  : 25.000 fps
Color space                 : YUV
Chroma subsampling          : 4:2:0
Bit depth                   : 8 bits
Scan type                   : Progressive
Bits/(Pixel*Frame)          : 0.069
Stream size                 : 629 MiB (85%)
Encoded date                : UTC 2017-11-05 00:58:57
Tagged date                 : UTC 2017-11-05 00:58:57
Color range                 : Limited
Color primaries             : BT.709
Transfer characteristics    : BT.709
Matrix coefficients         : BT.709

Audio
ID                          : 2
Format                      : AAC
Format/Info                 : Advanced Audio Codec
Format profile              : LC
Codec ID                    : 40
Duration                    : 2h 4mn
Bit rate mode               : Variable
Bit rate                    : 126 Kbps
Channel(s)                  : 2 channels
Channel positions           : Front: L R
Sampling rate               : 44.1 KHz
Frame rate                  : 43.066 fps (1024 spf)
Compression mode            : Lossy
Stream size                 : 112 MiB (15%)
Default                     : Yes
Alternate group             : 1
Encoded date                : UTC 2017-11-05 00:45:31
Tagged date                 : UTC 2017-11-05 00:45:31











Category:Movies > South Dub
Lang:Hindi
Total Size:744.19 MB
Info Hash:db82f8393940c04210928906ab219576c4f6fc2f
Added By:Shanoo
Date Added:05-11-2017 07:03:53
Views:980
Hits:135

Download Torrent

Ratings:Not Yet Rated (Log in to rate it)


Tracker:
udp://tracker.openbittorrent.com:80/announce


File List: 


Comments

No comments still posted

Powered by 10 Hamsters v2-svn -|- Page Generated In 6.159192 secs.
-|- RSS Feed -|- Feed Info
Theme By: Nikkbu