MacGyver | Madame Secretary | Major Crimes
[Login] or [Signup]
Login
Username:
Password:
[Signup]
[Recover Account]


Poll


You must be logged in to view polls



Torrent Details For "Comrade (2017) Bengali Movie - 1CD - Scam Rip[Mp4 - AAC3(2Ch)]"

Comrade (2017) Bengali Movie - 1CD - Scam Rip[Mp4 - AAC3(2Ch)]

Download this torrent | Magnet Download
Health:
Seeds: 0
Leechers: 4
Completed: 21 
Last Checked: 18-11-2017 06:21:58
External Torrent
Update Stats
Download Magnet


Poster


Watch-Free-HD     Download

Details
Name:Comrade (2017) Bengali Movie - 1CD - Scam Rip[Mp4 - AAC3(2Ch)]
Description:
Comrade (2017) Bengali Movie  -
1CD - Scam Rip[Mp4 - AAC3(2Ch)]  






General
Format                                   : MPEG-4
Format profile                           : Base Media / Version 2
Codec ID                                 : mp42 (mp42/isom/avc1)
File size                                : 709 MiB
Duration                                 : 1 h 43 min

Video
ID                                       : 2
Format                                   : AVC
Format/Info                              : Advanced Video Codec
Format profile                           : [email protected]
Format settings                          : CABAC / 5 Ref Frames
Format settings, CABAC                   : Yes
Format settings, RefFrames               : 5 frames
Codec ID                                 : avc1
Codec ID/Info                            : Advanced Video Coding
Duration                                 : 1 h 43 min
Bit rate mode                            : Variable
Bit rate                                 : 822 kb/s
Maximum bit rate                         : 8 200 kb/s
Width                                    : 720 pixels
Height                                   : 576 pixels
Display aspect ratio                     : 16:9
Frame rate mode                          : Constant
Frame rate                               : 25.000 FPS
Standard                                 : PAL
Color space                              : YUV
Chroma subsampling                       : 4:2:0
Bit depth                                : 8 bits
Scan type                                : Progressive
Bits/(Pixel*Frame)                       : 0.079
Stream size                              : 614 MiB (87%)

Audio
ID                                       : 1
Format                                   : AAC
Format/Info                              : Advanced Audio Codec
Format profile                           : LC
Codec ID                                 : mp4a-40-2
Duration                                 : 1 h 43 min
Bit rate mode                            : Variable
Bit rate                                 : 125 kb/s
Maximum bit rate                         : 576 kb/s
Channel(s)                               : 2 channels
Channel positions                        : Front: L R
Sampling rate                            : 48.0 kHz
Compression mode                         : Lossy
Stream size                              : 93.2 MiB (13%)

[video=http://www.youtube.com/watch?v=BvbCMQN2XRk]
Thumbnail




Category:Movies > Bengali
Lang:Bengali  Bengali
Total Size:709.41 MB
Info Hash:ad64ece09ac6ea2341fc501330b16fbc96876d57
Added By:Pherarim
Date Added:04-11-2017 15:45:34
Views:590
Hits:75

Download Torrent

Ratings:Not Yet Rated (Log in to rate it)

  


Tracker:
udp://9.rarbg.me:2710/announce


File List: 


Comments

No comments still posted

Powered by 10 Hamsters v2-svn -|- Page Generated In 1.268071 secs.
-|- RSS Feed -|- Feed Info
Theme By: Nikkbu