Shaun the Sheep | Shimmer and Shine | Shoot the Messenger
[Login] or [Signup]
Login
Username:
Password:
[Signup]
[Recover Account]


Poll


You must be logged in to view polls



Torrent Details For "ANGREJ A Heart Touching Story Of Gejja By ((SHANOO))"

ANGREJ A Heart Touching Story Of Gejja By ((SHANOO))

Download this torrent | Magnet Download
Health:
Seeds: 0
Leechers: 1
Completed:
Last Checked: 04-11-2017 04:10:14
External Torrent
Update Stats
Download Magnet


Poster


iMDB
Imdb Picture Title: Angrej
Year: 2015
Runtime: 130 minutes
Votes: 2077
Rating: 8.6/10
Language: Panjabi
Country: India
All Genres: Comedy, Romance
Plot Outline: A thoughtful young man struggles to find a woman to marry.
Director: Simerjit Singh
Writing By: Amberdeep Singh,
Produced By: Karaj Gill,Jaspal Singh Sandhu,
Music: Jatinder Shah
Cast:
Amrinder Gill as Angrej / Geja
Aditi Sharma as Maado
Sargun Mehta Dubey as Dhan Kaur
Ammy Virk as Haakam
Binnu Dhillon as Aslam
Sardar Sohi as Maado's father
Nirmal Rishi as Maado's mother
Anita Devgan as
Razia Sukhbir as Angrej's Bhabi
Nisha Bano as Golo (Maado's friend)


Watch-Free-HD     Download

Details
Name:ANGREJ A Heart Touching Story Of Gejja By ((SHANOO))
Description:

Uploaded By

First On Net By Shanoo

General
        Complete name          
ANGREJ A Heart Touching Story Of Gejja By_((SHANOO))
Format                      : Matroska
Format version              : Version 4 / Version 2
File size                   : 945 MiB
Duration                    : 2h 11mn
Overall bit rate            : 1 002 Kbps
Encoded date                : UTC 2015-11-13 08:11:34
Writing application         : mkvmerge v8.5.2 ('Crosses') 32bit
Writing library             : libebml v1.3.3 + libmatroska v1.4.4

Video
ID                          : 1
Format                      : AVC
Format/Info                 : Advanced Video Codec
Format profile              : [email protected]
Format settings, CABAC      : Yes
Format settings, ReFrames   : 4 frames
Codec ID                    : V_MPEG4/ISO/AVC
Duration                    : 2h 11mn
Bit rate                    : 808 Kbps
Width                       : 1 280 pixels
Height                      : 544 pixels
Display aspect ratio        : 16:9
Frame rate mode             : Constant
Frame rate                  : 23.976 (24000/1001) fps
Color space                 : YUV
Chroma subsampling          : 4:2:0
Bit depth                   : 8 bits
Scan type                   : Progressive
Bits/(Pixel*Frame)          : 0.048
Stream size                 : 762 MiB (81%)
Writing library             : x264 core 146 r2538 121396c
Default                     : Yes
Forced                      : No

Audio
ID                          : 2
Format                      : AC-3
Format/Info                 : Audio Coding 3
Mode extension              : CM (complete main)
Format settings, Endianness : Big
Codec ID                    : A_AC3
Duration                    : 2h 11mn
Bit rate mode               : Constant
Bit rate                    : 192 Kbps
Channel(s)                  : 6 channels
Channel positions           : Front: L C R, Side: L R, LFE
Sampling rate               : 48.0 KHz
Frame rate                  : 31.250 fps (1536 spf)
Compression mode            : Lossy
Stream size                 : 181 MiB (19%)
Default                     : Yes
Forced                      : No

Text
ID                          : 3
Format                      : UTF-8
Codec ID                    : S_TEXT/UTF8
Codec ID/Info               : UTF-8 Plain Text
Duration                    : 2h 8mn
Bit rate                    : 68 bps
Count of elements           : 1879
Stream size                 : 65.0 KiB (0%)
Default                     : Yes
Forced                      : No
















Category:Movies > 720P Bluray
Lang:Punjabi
Total Size:945.31 MB
Info Hash:2770db106440580f5a66104fb3d557c3ca2eb7b9
Added By:Shanoo
Date Added:31-10-2017 13:46:45
Views:234
Hits:38

Download Torrent

Ratings:Not Yet Rated (Log in to rate it)


Tracker:
udp://tracker.openbittorrent.com:80/announce


File List: 


Comments

No comments still posted

Powered by 10 Hamsters v2-svn -|- Page Generated In 4.672965 secs.
-|- RSS Feed -|- Feed Info
Theme By: Nikkbu