Watch movie | Danny Elfman | Chris Sarandon
[Login] or [Signup]
Login
Username:
Password:
[Signup]
[Recover Account]


Poll


You must be logged in to view polls



Torrent Details For "Kadamban (2017) Full Hindi Dubbed Movie - Arya, Catherine Tresa - Riwaz Duggal - New Released -..."

Kadamban (2017) Full Hindi Dubbed Movie - Arya, Catherine Tresa - Riwaz Duggal - New Released -...

Download this torrent | Magnet Download
Health:
Seeds: 0
Leechers: 9
Completed:
Last Checked: 02-11-2017 19:40:25
External Torrent
Update Stats
Download Magnet


Poster


iMDB
Imdb Picture Title: Kadamban
Year: 2017
Runtime: 142 minutes
Votes: 51
Rating: 6.8/10
Language: Tamil
Country: India
All Genres: Drama
Plot Outline: The lives of people living in traditional ways in the South Indian jungle are depicted in this movie.

Plot:

The lives of people living in traditional ways in the South Indian jungle are depicted in this movie.


Cast:
Madhuvanti Arun as
Arya as
Catherine Tresa as


Watch-Free-HD     Download

Details
Name:Kadamban (2017) Full Hindi Dubbed Movie - Arya, Catherine Tresa - Riwaz Duggal - New Released -...
Description:


Uploaded By

First On Net By Shanoo


General
Complete name               : Kadamban (2017) Full Hindi Dubbed Movie By Shanoo
Format                      : MPEG-4
Format profile              : Base Media
Codec ID                    : isom (isom/iso2/avc1/mp41)
File size                   : 816 MiB
Duration                    : 1h 52mn
Overall bit rate mode       : Variable
Overall bit rate            : 1 010 Kbps
Encoded date                : UTC 2017-10-28 07:01:42
Tagged date                 : UTC 2017-10-28 07:01:42

Video
ID                          : 1
Format                      : AVC
Format/Info                 : Advanced Video Codec
Format profile              : [email protected]
Format settings, CABAC      : Yes
Format settings, ReFrames   : 3 frames
Codec ID                    : avc1
Codec ID/Info               : Advanced Video Coding
Duration                    : 1h 52mn
Source duration             : 1h 52mn
Bit rate                    : 881 Kbps
Width                       : 854 pixels
Height                      : 480 pixels
Display aspect ratio        : 16:9
Frame rate mode             : Constant
Frame rate                  : 25.000 fps
Color space                 : YUV
Chroma subsampling          : 4:2:0
Bit depth                   : 8 bits
Scan type                   : Progressive
Bits/(Pixel*Frame)          : 0.086
Stream size                 : 712 MiB (87%)
Source stream size          : 712 MiB (87%)
Encoded date                : UTC 2017-10-28 07:01:42
Tagged date                 : UTC 2017-10-28 07:01:42
Color range                 : Limited
Color primaries             : BT.709
Transfer characteristics    : BT.709
Matrix coefficients         : BT.709

Audio
ID                          : 2
Format                      : AAC
Format/Info                 : Advanced Audio Codec
Format profile              : LC
Codec ID                    : 40
Duration                    : 1h 52mn
Bit rate mode               : Variable
Bit rate                    : 126 Kbps
Channel(s)                  : 2 channels
Channel positions           : Front: L R
Sampling rate               : 44.1 KHz
Frame rate                  : 43.066 fps (1024 spf)
Compression mode            : Lossy
Stream size                 : 101 MiB (12%)
Default                     : Yes
Alternate group             : 1
Encoded date                : UTC 2017-10-28 07:03:05
Tagged date                 : UTC 2017-10-28 07:03:05














Category:Movies > South Dub
Lang:Hindi
Total Size:815.94 MB
Info Hash:6c016c4b9320cefee277d96835b4ec877f91d5d3
Added By:Shanoo
Date Added:29-10-2017 05:43:07
Views:1,187
Hits:224

Download Torrent

Ratings:Not Yet Rated (Log in to rate it)


Tracker:
udp://tracker.openbittorrent.com:80/announce


File List: 


Comments

No comments still posted

Powered by 10 Hamsters v2-svn -|- Page Generated In 3.902123 secs.
-|- RSS Feed -|- Feed Info
Theme By: Nikkbu