Watch movie | Adewale Akinnuoye-Agbaje | Christopher Eccleston
[Login] or [Signup]
Login
Username:
Password:
[Signup]
[Recover Account]


Poll


You must be logged in to view polls



Torrent Details For "Warcraft 2016 1080p Untouched Bluray Dual Audio [DD 5.1 Hindi - English 2.0] ESub By Shanoo"

Warcraft 2016 1080p Untouched Bluray Dual Audio [DD 5.1 Hindi - English 2.0] ESub By Shanoo

Download this torrent | Magnet Download
Health:
Seeds: 0
Leechers: 2
Completed:
Last Checked: 29-10-2017 22:25:56
External Torrent
Update Stats
Download Magnet


Poster


iMDB
Imdb Picture Original Title: Warcraft
Title: Warcraft: The Beginning
Year: 2016
Runtime: 123 minutes
Votes: 191285
Rating: 7.0/10
Language: English
Country: China, Canada, Japan, USA
All Genres: Action, Adventure, Fantasy
Plot Outline: As an Orc horde invades the planet Azeroth using a magic portal, a few human heroes and dissenting Orcs must attempt to stop the true evil behind this war.
Tagline: Two worlds. One home.
Director: Duncan Jones
Writing By: Charles Leavitt,Duncan Jones,
Produced By: Nicholas S. Carpenter,Edward Cheng,Stuart Fenegan,Alex Gartner,Jon Jashni,Peikang La,Chris Metzen,Michael Morhaime,Brent O'Connor,Rob Pardo,Shimu Qian,Charles Roven,Rebecca Steel Roven,Paul W. Sams,Jillian Share,Thomas Tull,Zhonglei Wang,
Music: Ramin Djawadi
Plot:

When the world of the Orcs of Draenor is being destroyed by the evil fel magic that uses life-force, the powerful warlock Gul'dan creates a portal to the world of Azeroth and forms the Horde with members of the Orc clans. He also captures many prisoners to keep the portal open. The king of Azeroth, Llane Wrynn and his brother-in-law, Anduin Lothar are informed by the apprentice of magician Khadgar that he has found fel magic in dead bodies and the king decides to summon the Guardian of Tirisfal, Medivh, to protect his kingdom. Lothar and Khadgar head to Kharazhan to meet Medivh and an ominous shadow points a book out to Khadgar, who takes it and hides. Anduin, Khadgar and Medivh and a group of soldiers are attacked by Orcs and they capture the slave Garona, who is released by King Llane, and she shows them the location of the portal. Garona is contacted by the Orc chief of a clan Durotan that wants to meet King Llane to stop the fel magic. Meanwhile Khadgar learns that the gate was opened with the help of someone in Azeroth. Shall King Llane trust Garona and Durotan, who might be the traitor?

- Written by Claudio Carvalho, Rio de Janeiro, Brazil

As an Orc horde invades the planet Azeroth using a magic portal, a few human heroes and dissenting Orcs must attempt to stop the true evil behind this war.

- Written by Kenneth Chisholm
Cast:
Travis Fimmel as Anduin Lothar
Paula Patton as Garona
Ben Foster as Medivh
Dominic Cooper as Llane Wrynn
Toby Kebbell as Durotan / Antonidas
Ben Schnetzer as Khadgar
Robert Kazinsky as Orgrim
Clancy Brown as Blackhand
Daniel Wu as Gul'dan
Ruth Negga as Lady Taria
Trailers:
Trailer #2
TV Spot
New Trailer
Trailer #1


Watch-Free-HD     Download

Details
Name:Warcraft 2016 1080p Untouched Bluray Dual Audio [DD 5.1 Hindi - English 2.0] ESub By Shanoo
Description:


Uploaded By

First On Net By Shanoo

Quote:

Looking to escape from his dying world, the orc shaman Gul'dan utilizes dark magic to open a portal to the human realm of Azeroth. Supported by the fierce fighter Blackhand, Gul'dan organizes the orc clans into a conquering army called the Horde. Uniting to protect Azeroth from these hulking invaders are King Llane, the mighty warrior Anduin Lothar (Travis Fimmel) and the powerful wizard Medivh. As the two races collide, leaders from each side start to question if war is the only answer.


General
Format                                   : Matroska
Format version                           : Version 4 / Version 2
File size                                : 2.42 GiB
Duration                                 : 2 h 3 min
Overall bit rate                         : 2 818 kb/s
Movie name                               : Warcraft 2016 1080p Untouched Bluray Dual Audio [DD 5.1 Hindi - English 2.0] ESub


Video
ID                                       : 1
Format                                   : AVC
Format/Info                              : Advanced Video Codec
Format profile                           : [email protected]
Format settings                          : CABAC / 4 Ref Frames
Format settings, CABAC                   : Yes
Format settings, RefFrames               : 4 frames
Codec ID                                 : V_MPEG4/ISO/AVC
Duration                                 : 2 h 3 min
Bit rate                                 : 2 050 kb/s
Width                                    : 1 920 pixels
Height                                   : 784 pixels
Display aspect ratio                     : 2.40:1
Frame rate mode                          : Constant
Frame rate                               : 23.976 (24000/1001) FPS
Color space                              : YUV
Chroma subsampling                       : 4:2:0
Bit depth                                : 8 bits
Scan type                                : Progressive
Bits/(Pixel*Frame)                       : 0.057
Stream size                              : 1.76 GiB (73%)
Title                                    : Warcraft 2016 1080p Untouched Bluray Dual Audio [DD 5.1 Hindi - English 2.0] ESub
Writing library                          : x264 core 148
Default                                  : Yes
Forced                                   : No

Audio #1
ID                                       : 2
Format                                   : AC-3
Format/Info                              : Audio Coding 3
Format settings, Endianness              : Big
Codec ID                                 : A_AC3
Duration                                 : 2 h 3 min
Bit rate mode                            : Constant
Bit rate                                 : 640 kb/s
Channel(s)                               : 6 channels
Channel positions                        : Front: L C R, Side: L R, LFE
Sampling rate                            : 48.0 kHz
Frame rate                               : 31.250 FPS (1536 SPF)
Bit depth                                : 16 bits
Compression mode                         : Lossy
Delay relative to video                  : -43 ms
Stream size                              : 564 MiB (23%)
Title                                    : Warcraft 2016 1080p Untouched Bluray Dual Audio [DD 5.1 Hindi - English 2.0] ESub
Language                                 : Hindi
Service kind                             : Complete Main
Default                                  : Yes
Forced                                   : No

Audio #2
ID                                       : 3
Format                                   : AAC
Format/Info                              : Advanced Audio Codec
Format profile                           : LC
Codec ID                                 : A_AAC-2
Duration                                 : 2 h 3 min
Bit rate                                 : 127 kb/s
Channel(s)                               : 2 channels
Channel positions                        : Front: L R
Sampling rate                            : 48.0 kHz
Frame rate                               : 46.875 FPS (1024 SPF)
Compression mode                         : Lossy
Delay relative to video                  : -43 ms
Stream size                              : 111 MiB (4%)
Language                                 : English
Default                                  : No
Forced                                   : No

Text
ID                                       : 4
Format                                   : UTF-8
Codec ID                                 : S_TEXT/UTF8
Codec ID/Info                            : UTF-8 Plain Text
Duration                                 : 1 h 52 min
Bit rate                                 : 36 b/s
Count of elements                        : 1237
Stream size                              : 29.9 KiB (0%)
Language                                 : English
Default                                  : Yes
Forced                                   : No








Category:Movies > 1080P Bluray
Lang:Hindi
Total Size:20.43 kB
Info Hash:eee30a31679e1398d2d7567642673a955cc5e020
Added By:Shanoo
Date Added:27-10-2017 08:14:32
Views:186
Hits:27

Download Torrent

Ratings:Not Yet Rated (Log in to rate it)


Tracker:
udp://tracker.openbittorrent.com:80/announce


File List: 


Comments

No comments still posted

Powered by 10 Hamsters v2-svn -|- Page Generated In 3.791193 secs.
-|- RSS Feed -|- Feed Info
Theme By: Nikkbu