The.Big.Bang.Theory.S10D02.DUAL.COMPLETE.BLURAY-FULLSiZE | The.Big.Bang.Theory.S11E12.iNTERNAL.720p.WEB.x264-BAMBOOZLE | The.Big.Bang.Theory.S11E05.German.Custom.Subbed.720p.HDTV.x264.iNTERNAL-BTVG
[Login] or [Signup]
Login
Username:
Password:
[Signup]
[Recover Account]


Poll


You must be logged in to view polls



Torrent Details For "Bhai Mera Big Brother 2017 Hindi Dubbed by Shanoo"

Bhai Mera Big Brother 2017 Hindi Dubbed by Shanoo

Download this torrent | Magnet Download
Health:
Seeds: 0
Leechers: 8
Completed:
Last Checked: 24-10-2017 16:21:54
External Torrent
Update Stats
Download Magnet


Poster


Watch-Free-HD     Download

Details
Name:Bhai Mera Big Brother 2017 Hindi Dubbed by Shanoo
Description:

Quote:



Uploaded By

Fisrt On Net By Shanoo

General
Complete name               : Mera Big Brother 2017
Format                      : MPEG-4
Format profile              : Base Media
Codec ID                    : isom (isom/iso2/avc1/mp41)
File size                   : 715 MiB
Duration                    : 2h 2mn
Overall bit rate            : 818 Kbps
Writing application         : Lavf57.71.100

Video
ID                          : 1
Format                      : AVC
Format/Info                 : Advanced Video Codec
Format profile              : [email protected]
Format settings, CABAC      : Yes
Format settings, ReFrames   : 4 frames
Codec ID                    : avc1
Codec ID/Info               : Advanced Video Coding
Duration                    : 2h 2mn
Bit rate                    : 682 Kbps
Width                       : 720 pixels
Height                      : 380 pixels
Display aspect ratio        : 1.895
Frame rate mode             : Constant
Frame rate                  : 25.000 fps
Color space                 : YUV
Chroma subsampling          : 4:2:0
Bit depth                   : 8 bits
Scan type                   : Progressive
Bits/(Pixel*Frame)          : 0.100
Stream size                 : 598 MiB (84%)
Writing library             : x264 core 148 r2643 5c65704

Audio
ID                          : 2
Format                      : AAC
Format/Info                 : Advanced Audio Codec
Format profile              : LC
Codec ID                    : 40
Duration                    : 2h 2mn
Bit rate mode               : Constant
Bit rate                    : 128 Kbps
Channel(s)                  : 2 channels
Channel positions           : Front: L R
Sampling rate               : 44.1 KHz
Frame rate                  : 43.066 fps (1024 spf)
Compression mode            : Lossy
Stream size                 : 112 MiB (16%)
Default                     : Yes
Alternate group             : 1







Category:Movies > South Dub
Lang:Hindi
Total Size:715.01 MB
Info Hash:c8069d24018c40ec64a3232f329d0d32ae3d38e7
Added By:Shanoo
Date Added:24-10-2017 10:21:39
Views:547
Hits:93

Download Torrent

Ratings:Not Yet Rated (Log in to rate it)


Tracker:
udp://tracker.openbittorrent.com:80/announce


File List: 


Comments

No comments still posted

Powered by 10 Hamsters v2-svn -|- Page Generated In 2.259258 secs.
-|- RSS Feed -|- Feed Info
Theme By: Nikkbu