Blade Man (Iron Man) | Blow Breeze | Boarding House Number 24
[Login] or [Signup]
Login
Username:
Password:
[Signup]
[Recover Account]


Poll


You must be logged in to view polls



Torrent Details For "Beauty And The Beast (1991) BRRip 720p x264 [Dual Audio] [Hindi+English]--prisak~~{HKRG}"

Beauty And The Beast (1991) BRRip 720p x264 [Dual Audio] [Hindi+English]--prisak~~{HKRG}

Download this torrent | Magnet Download
Health:
Seeds: 0
Leechers: 2
Completed:
Last Checked: 20-09-2017 13:33:21
External Torrent
Update Stats
Download Magnet


Poster


iMDB
Imdb Picture Title: Beauty and the Beast
Year: 1991
Runtime: 84 minutes
Votes: 335141
Rating: 8.0/10
Language: English, French
Country: USA
All Genres: Animation, Family, Fantasy, Musical, Romance
Plot Outline: A young woman whose father has been imprisoned by a terrifying beast offers herself in his place, unaware that her captor is actually a prince, physically altered by a magic spell.
Tagline: For the first time in theatres in 3D (2012 3D re-release)
Director: Gary Trousdale
Kirk Wise
Writing By: Linda Woolverton,Brenda Chapman,Chris Sanders,Burny Mattinson,Kevin Harkey,Brian Pimental,Bruce Woodside,Joe Ranft,Tom Ellery,Kelly Asbury,Robert Lence,Jeanne-Marie Leprince de Beaumont,
Produced By: Howard Ashman,Don Hahn,John Lasseter,Sarah McArthur,
Music: Alan Menken
Plot:

Having lived a life in selfishness, a young prince is cursed by a mysterious enchantress to having the appearance of a monstrous beast. His only hope is to learn to love a young woman and earn her love in return in order to redeem himself. Years later, his chance shows itself when a young maiden named Belle offers to take her ill father's place as his prisoner. With help from the castle's enchanted staff, Belle learns to appreciate her captor and immediately falls in love with him. Back in the village however, an unscrupulous hunter has his own plans for Belle.

- Written by Blazer346

An arrogant young prince and his castle's servants fall under the spell of a wicked enchantress, who turns him into the hideous Beast until he learns to love and be loved in return. The spirited, headstrong village girl Belle enters the Beast's castle after he imprisons her father Maurice. With the help of his enchanted servants, including the matronly Mrs. Potts, Belle begins to draw the cold-hearted Beast out of his isolation.

- Written by Jwelch5742

Belle is a girl who is dissatisfied with life in a small provincial French town, constantly trying to fend off the misplaced "affections" of conceited Gaston. The Beast is a prince who was placed under a spell because he could not love. A wrong turn taken by Maurice, Belle's father, causes the two to meet.

- Written by Tim Pickett <[email protected]>

Prince Adam was cursed to a beast form by Enchantress who saw no love in his arrogant heart for others. The one way he could break the spell was to learn to love another and earn her love in return before the last petal from his enchanted rose fell, which would bloom until his twenty-first birthday. But who could ever learn to love a beast? Ten years later, Maurice, an inventor from a nearby village, becomes lost in the woods and seeks shelter in the Beast's castle, the Beast imprisons him for trespassing. His daughter Belle, a bookworm who dreams of life outside her provincial village, finds him trapped in the castle and offers her place instead. The Beast accepts with a promise she'll remain in the castle forever. In the beginning Belle views him as nothing more than a monster, he views her as difficult and stubborn. But the two soon taste the bitter-sweetness of finding you can change and learning you were wrong.

- Written by O.G.

A young woman whose father has been imprisoned by a terrifying beast offers herself in his place, unaware that her captor is actually a prince, physically altered by a magic spell.


Cast:
Robby Benson as Beast
Jesse Corti as Lefou
Rex Everhart as Maurice
Angela Lansbury as Mrs. Potts
Paige O'Hara as Belle
Jerry Orbach as Lumiere
Bradley Pierce as Chip
David Ogden Stiers as Cogsworth / Narrator
Richard White as Gaston
Jo Anne Worley as Wardrobe
Trailers:
3D Re-release Version


Watch-Free-HD     Download

Details
Name:Beauty And The Beast (1991) BRRip 720p x264 [Dual Audio] [Hindi+English]--prisak~~{HKRG}
Description:


 http://www.sworld4u.ml/2017/09...brrip-720p-dual.html

Beauty And The Beast BRRip 720p x264 {Dual Audio} [Hindi+English] (1991)

*Sample Included*

Release Title:

Beauty And The Beast (1991) BRRip 720p x264 [Dual Audio] [Hindi+English]--prisak~~{HKRG}

Encode date:

UTC 2013-02-03 03:35:13

IMDB Link:

 http://www.imdb.com/title/tt0101414

Storyline:

Follow the adventures of Belle, a bright young woman who finds herself in the castle of a prince who's been turned into a mysterious beast. With the help of the castle's enchanted staff, Belle soon learns the most important lesson of all -- that true beauty comes from within.

Genre:

Animation | Fantasy | Family

Release date:

13/11/1991


Paige O'Hara ... Belle (voice)
Robby Benson ... Beast (voice)
Richard White ... Gaston (voice)
Jerry Orbach ... Lumiere (voice)
David Ogden Stiers ... Cogsworth / Narrator (voice)
Angela Lansbury ... Mrs. Potts (voice)
Bradley Pierce ... Chip
Rex Everhart ... Maurice
Jesse Corti ... Lefou
Hal Smith ... Philippe
Jo Anne Worley ... Wardrobe
Mary Kay Bergman ... Babette
Brian Cummings ... Stove
Alvin Epstein ... Bookseller
Tony Jay ... Monsieur D'Arque



General

Complete name                  : Beauty And The Beast (1991) BRRip 720p x264 [Dual Audio] [Hindi+English]--prisak~~{HKRG}.mkv
Format                         : Matroska
Format version                 : Version 2
File size                      : 860 MiB
Duration                       : 1h 27mn
Overall bit rate               : 1 367 Kbps
Movie name                     : Beauty And The Beast (1991) BRRip 720p x264 [Dual Audio] [Hindi+English]--prisak~~{HKRG}
Encoded date                   : UTC 2013-02-03 03:35:13
Writing application            : mkvmerge v5.8.0 ('No Sleep / Pillow') built on Sep  2 2012 15:37:04
Writing library                : libebml v1.2.3 + libmatroska v1.3.0

Video
ID                             : 1
Format                         : AVC
Format/Info                    : Advanced Video Codec
Format profile                 : [email protected]
Format settings, CABAC         : Yes
Format settings, ReFrames      : 16 frames
Muxing mode                    : Header stripping
Codec ID                       : V_MPEG4/ISO/AVC
Duration                       : 1h 27mn
Bit rate                       : 1 110 Kbps
Width                          : 1 280 pixels
Height                         : 720 pixels
Display aspect ratio           : 16:9
Frame rate mode                : Variable
Frame rate                     : 25.000 fps
Color space                    : YUV
Chroma subsampling             : 4:2:0
Bit depth                      : 8 bits
Scan type                      : Progressive
Bits/(Pixel*Frame)             : 0.048
Stream size                    : 682 MiB (79%)
Title                          : Beauty And The Beast (1991) BRRip 720p x264 [Dual Audio] [Hindi+English]--prisak~~{HKRG}
Writing library                : x264 core 112
Encoding settings              : cabac=1 / ref=16 / deblock=1:0:0 / analyse=0x3:0x113 / me=hex / subme=7 / psy=1 / psy_rd=1.00:0.00 / mixed_ref=1 / me_range=16 / chroma_me=1 / trellis=1 / 8x8dct=1 / cqm=0 / deadzone=21,11 / fast_pskip=1 / chroma_qp_offset=-2 / threads=48 / sliced_threads=0 / nr=0 / decimate=1 / interlaced=0 / constrained_intra=0 / bframes=8 / b_pyramid=2 / b_adapt=2 / b_bias=0 / direct=2 / weightb=1 / open_gop=0 / weightp=2 / keyint=250 / keyint_min=25 / scenecut=40 / intra_refresh=0 / rc_lookahead=40 / rc=2pass / mbtree=1 / bitrate=1110 / ratetol=1.0 / qcomp=0.60 / qpmin=3 / qpmax=51 / qpstep=4 / cplxblur=20.0 / qblur=0.5 / ip_ratio=1.40 / aq=1:1.00
Language                       : English
Color primaries                : BT.709-5, BT.1361, IEC 61966-2-4, SMPTE RP177
Transfer characteristics       : BT.709-5, BT.1361
Matrix coefficients            : BT.709-5, BT.1361, IEC 61966-2-4 709, SMPTE RP177

Audio #1
ID                             : 2
Format                         : AC-3
Format/Info                    : Audio Coding 3
Mode extension                 : CM (complete main)
Muxing mode                    : Header stripping
Codec ID                       : A_AC3
Duration                       : 1h 27mn
Bit rate mode                  : Constant
Bit rate                       : 128 Kbps
Channel(s)                     : 2 channels
Channel positions              : Front: L R
Sampling rate                  : 48.0 KHz
Bit depth                      : 16 bits
Compression mode               : Lossy
Stream size                    : 80.6 MiB (9%)
Title                          : prisak {{HKRG}}
Language                       : Hindi

Audio #2
ID                             : 3
Format                         : AC-3
Format/Info                    : Audio Coding 3
Mode extension                 : CM (complete main)
Muxing mode                    : Header stripping
Codec ID                       : A_AC3
Duration                       : 1h 27mn
Bit rate mode                  : Constant
Bit rate                       : 128 Kbps
Channel(s)                     : 2 channels
Channel positions              : Front: L R
Sampling rate                  : 48.0 KHz
Bit depth                      : 16 bits
Compression mode               : Lossy
Stream size                    : 80.6 MiB (9%)
Title                          : prisak {{HKRG}}
Language                       : English


                     
Category:Movies > Hollywood Dub
Lang:Hindi
Total Size:870.21 MB
Info Hash:6b697c9ad4477a13ea98f778cd2845dd4057eb3a
Added By:Shrawankk
Date Added:11-09-2017 05:50:28
Views:581
Hits:109

Download Torrent

Ratings:Not Yet Rated (Log in to rate it)


Tracker:
udp://tracker.ccc.de:80/announce

This Torrent also has backup trackers
URLSeedersLeechersCompleted
http://tracker.istole.it/announce000
http://tracker.publicbt.com/announce000
http://exodus.desync.com:6969/announce000
http://exodus.desync.com/announce000
http://tracker.coppersurfer.tk:6969/announce000


File List: 


Comments

No comments still posted

Powered by 10 Hamsters v2-svn -|- Page Generated In 2.440808 secs.
-|- RSS Feed -|- Feed Info
Theme By: Nikkbu