My Santa | Medabots | My Teen Romantic Comedy SNAFU
[Login] or [Signup]
Login
Username:
Password:
[Signup]
[Recover Account]


Poll


You must be logged in to view polls



Torrent Details For "Ekkadiki (2017) 720p WEB HD x264 - AAC - Ranvijay Exclusive "

Ekkadiki (2017) 720p WEB HD x264 - AAC - Ranvijay Exclusive

Download this torrent | Magnet Download
Health:
Seeds: 0
Leechers: 26
Completed: 183 
Last Checked: 20-09-2017 04:16:12
External Torrent
Update Stats
Download Magnet


Poster


iMDB
Imdb Picture Title: Ekkadiki Pothavu Chinnavada
Year: 2016
Runtime: 140 minutes
Votes: 397
Rating: 7.7/10
Language: Telugu
Country: India
All Genres: Comedy, Fantasy, Romance, Thriller
Plot Outline: In this love triangle, the pain is acute, the lovers obtuse, and nothing seems right.
Director: Vi Anand
Writing By: Vi Anand,
Music: Shekhar Chandra
Plot:

Arjun(Nikhil) is a visual effect supervisor with a bad love failure. One fine day, he takes his friend(Vennela Kishore) for treatment as the latter is possessed by an evil spirit. There he meets Nithya(Hebah Patel) and falls in love with her. The twist in the tale arises when Arjun comes to know that Hebah is also possessed and someone inside her body is making her do all these things. Things become ever worst for Arjun when yet another character called Amala(Nanditha Swetha) approaches him as the one who is behind all this. What is all this confusion ? Who is this Amala ? Why is she behind Arjun ? Is there a back story behind all this ?

In this love triangle, the pain is acute, the lovers obtuse, and nothing seems right.

- Written by Kiran Mascarenhas
Cast:
Nikhil Siddharth as Arjun
Hebah Patel as Nithya / Amala
Nandita Shwetha as Parvathi / Amala
Tanikella Bharani as High School Principal
Vennela Kishore as Kishore
Thagubothu Ramesh as BenzCircle Babji
Chammak Chandra as
Viva Harsha as


Watch-Free-HD     Download

Details
Name:Ekkadiki (2017) 720p WEB HD x264 - AAC - Ranvijay Exclusive
Description:
Ekkadiki (2017) 720p WEB HD x264 - AAC - Ranvijay Exclusive



www.imdb.com/title/tt6258486/
Format : Matroska
Format version : Version 4 / Version 2
File size : 1 013 MiB
Duration : 2 h 4 min
Overall bit rate mode : Variable
Overall bit rate : 1 137 kb/s

Video
ID : 1
Format : VP9
Codec ID : V_VP9
Duration : 2 h 4 min
Bit rate : 1 021 kb/s
Width : 1 280 pixels
Height : 720 pixels
Display aspect ratio : 16:9
Frame rate mode : Variable
Frame rate : 27.113 FPS
Bits/(Pixel*Frame) : 0.041
Stream size : 909 MiB (90%)
Default : Yes
Forced : No

Audio
ID : 2
Format : Vorbis
Format settings, Floor : 1
Codec ID : A_VORBIS
Duration : 2 h 4 min
Bit rate mode : Variable
Bit rate : 128 kb/s
Channel(s) : 2 channels
Sampling rate : 44.1 kHz
Frame rate : 68.596 FPS (643 SPF)
Compression mode : Lossy
Stream size : 101 MiB (10%)
Writing application : Google
Default : Yes
Forced : No

 
 
 
 
 
 
 
Category:Movies > South Dub
Lang:Hindi
Total Size:1,012.59 MB
Info Hash:d06283b02f71995d34a91022973df4aa2e9c6d01
Added By:Shrawankk
Date Added:03-09-2017 05:26:57
Views:432
Hits:107

Download Torrent

Ratings:Not Yet Rated (Log in to rate it)


Tracker:
http://bigfoot1942.sektori.org:6969/announce

This Torrent also has backup trackers
URLSeedersLeechersCompleted
http://bigfoot1942.sektori.org:6969/announce000
http://tracker2.wasabii.com.tw:6969/announce000
http://bt.artvid.ru:6969/announce000
http://tracker.opentrackr.org/announce000
http://announce.torrentsmd.com:6969/announce000
http://tracker.trackerfix.com/announce000
http://tracker.opentrackr.org/announce000


File List: 


Comments

No comments still posted

Powered by 10 Hamsters v2-svn -|- Page Generated In 1.838812 secs.
-|- RSS Feed -|- Feed Info
Theme By: Nikkbu