Kancelaria adwokacka / The Practice | Kanclerz | Kapitan Bomba
[Login] or [Signup]
Login
Username:
Password:
[Signup]
[Recover Account]


Poll


You must be logged in to view polls



Torrent Details For "Choclate (Bengali Movie) - 1CD - N/R DvD Rip[Xvid - Mp3]"

Choclate (Bengali Movie) - 1CD - N/R DvD Rip[Xvid - Mp3]

Download this torrent | Magnet Download
Health:
Seeds: 0
Leechers: 13
Completed:
Last Checked: 19-09-2017 23:48:17
External Torrent
Update Stats
Download Magnet


Poster


Watch-Free-HD     Download

Details
Name:Choclate (Bengali Movie) - 1CD - N/R DvD Rip[Xvid - Mp3]
Description:
 Choclate (Bengali Movie) - 1CD -
N/R DvD Rip[Xvid - Mp3]
 




General
Format                                   : AVI
Format/Info                              : Audio Video Interleave
File size                                : 699 MiB
Duration                                 : 2 h 9 min

Video
ID                                       : 0
Format                                   : MPEG-4 Visual
Format profile                           : Advanced [email protected]
Format settings, BVOP                    : 1
Format settings, QPel                    : No
Format settings, GMC                     : No warppoints
Format settings, Matrix                  : Default (H.263)
Codec ID                                 : XVID
Duration                                 : 2 h 9 min
Bit rate                                 : 620 kb/s
Width                                    : 560 pixels
Height                                   : 240 pixels
Display aspect ratio                     : 2.35:1
Frame rate                               : 29.970
Color space                              : YUV
Chroma subsampling                       : 4:2:0
Bit depth                                : 8 bits
Scan type                                : Progressive
Compression mode                         : Lossy
Bits/(Pixel*Frame)                       : 0.154
Stream size                              : 574 MiB (82%)

Audio
ID                                       : 1
Format                                   : MPEG Audio
Format version                           : Version 1
Format profile                           : Layer 3
Mode                                     : Joint stereo
Mode extension                           : MS Stereo
Codec ID                                 : 55
Codec ID/Hint                            : MP3
Duration                                 : 2 h 9 min
Bit rate mode                            : Constant
Bit rate                                 : 128 kb/s
Channel(s)                               : 2 channels
Sampling rate                            : 48.0 kHz
Compression mode                         : Lossy
Stream size                              : 119 MiB (17%)


Thumbnail




Category:Movies > Bengali
Lang:Bengali  Bengali
Total Size:699.41 MB
Info Hash:6947cbf36ae072310aa7cdd01d1475087d31adb5
Added By:Pherarim
Date Added:28-08-2017 16:51:08
Views:476
Hits:120

Download Torrent

Ratings:Not Yet Rated (Log in to rate it)


Tracker:
udp://9.rarbg.me:2710/announce


File List: 


Comments

No comments still posted

Powered by 10 Hamsters v2-svn -|- Page Generated In 0.849057 secs.
-|- RSS Feed -|- Feed Info
Theme By: Nikkbu