John Larch | Dee J. Thompson | John Beradino
[Login] or [Signup]
Login
Username:
Password:
[Signup]
[Recover Account]


Poll


You must be logged in to view polls



Torrent Details For "A.Man.Apart.2003.1080p.BluRay.x264-Japhson"

A.Man.Apart.2003.1080p.BluRay.x264-Japhson

Download this torrent | Magnet Download
Health:
Seeds: 0
Leechers: 27
Completed: 114 
Last Checked: 19-10-2017 07:02:49
External Torrent
Update Stats
Download Magnet


Poster


iMDB
Imdb Picture Title: A Man Apart
Year: 2003
Runtime: 109 minutes
Votes: 40052
Rating: 6.1/10
Language: English, Spanish
Country: USA, Germany
All Genres: Action, Crime, Drama, Thriller
Plot Outline: A man known as Diablo emerges to head a drug cartel after the previous leader is imprisoned.
Tagline: Nothing left to live for......everything to fight for
Director: F. Gary Gray
Writing By: Christian Gudegast,Paul Scheuring,
Produced By: Michael De Luca,Bob Degus,Vin Diesel,Meredyth Frattolillo,F. Gary Gray,Ken Halsband,Nancy Lanham,Michael Nelson,Vincent Newman,Joey Nittolo,Claire Rudnick Polstein,Tucker Tooley,George Zakk,
Music: Anne Dudley
Plot:

Sean Vetter and Demetrius Hicks are members of the DEA who are fighting an ongoing drug war on the California/Mexico border, they are most successful at it because of their edge of growing up on the street and being thugs converted to cops. The DEA busts one of the major players by the name of "Memo" Lucero and imprison him in the United States but then a major player named Diablo then takes over the business and now he is now the major player targeted by Vetter and his team. But when Vetter's wife is killed in a botched hit organized by Diablo, he seeks revenge against those responsible and in the process has to seek help from the imprisoned Lucero in order to catch Diablo. But in the process, Vetter and Hicks have to fight their way up the chain to get to Diablo but it's easier said than done when all Vetter can focus on is revenge...

- Written by Anonymous

A man known as Diablo emerges to head a drug cartel after the previous leader is imprisoned.

- Written by Anonymous
Cast:
Vin Diesel as Sean Vetter
Larenz Tate as Demetrius Hicks
Timothy Olyphant as Hollywood Jack
Geno Silva as Memo Lucero
Jacqueline Obradors as Stacy Vetter
Steve Eastin as Ty Frost
Juan Fernández as Mateo Santos
Jeff Kober as Pomona Joe
Marco Rodríguez as Hondo
Mike Moroff as Gustavo Leon


Watch-Free-HD     Download

Details
Name:A.Man.Apart.2003.1080p.BluRay.x264-Japhson
Description:
MediaInfo

Video
ID                                       : 1
Format                                   : AVC
Format/Info                              : Advanced Video Codec
Format profile                           : [email protected]
Format settings, CABAC                   : Yes
Format settings, ReFrames                : 4 frames
Codec ID                                 : V_MPEG4/ISO/AVC
Duration                                 : 1 h 49 min
Bit rate                                 : 8 857 kb/s
Width                                    : 1 920 pixels
Height                                   : 1 080 pixels
Display aspect ratio                     : 16:9
Frame rate mode                          : Constant
Frame rate                               : 24.000 FPS
Color space                              : YUV
Chroma subsampling                       : 4:2:0
Bit depth                                : 8 bits
Scan type                                : Progressive
Bits/(Pixel*Frame)                       : 0.178
Stream size                              : 6.62 GiB (83%)
Writing library                          : x264 core 67 r1137M 1fda882
Encoding settings                        : cabac=1 / ref=4 / deblock=1:-1:-1 / analyse=0x3:0x113 / me=umh / subme=7 / psy_rd=1.0:0.0 / mixed_ref=1 / me_range=16 / chroma_me=1 / trellis=2 / 8x8dct=1 / cqm=0 / deadzone=21,11 / chroma_qp_offset=-2 / threads=6 / nr=0 / decimate=1 / mbaff=0 / bframes=3 / b_pyramid=0 / b_adapt=2 / b_bias=0 / direct=3 / wpredb=1 / keyint=250 / keyint_min=25 / scenecut=40 / rc=2pass / bitrate=8857 / ratetol=1.0 / qcomp=0.60 / qpmin=10 / qpmax=51 / qpstep=4 / cplxblur=20.0 / qblur=0.5 / vbv_maxrate=50000 / vbv_bufsize=50000 / ip_ratio=1.40 / pb_ratio=1.30 / aq=1:1.00
Language                                 : English
Default                                  : Yes
Forced                                   : No

Audio
ID                                       : 2
Format                                   : DTS
Format/Info                              : Digital Theater Systems
Mode                                     : 16
Format settings, Endianness              : Big
Codec ID                                 : A_DTS
Duration                                 : 1 h 49 min
Bit rate mode                            : Constant
Bit rate                                 : 1 509 kb/s
Channel(s)                               : 6 channels
Channel positions                        : Front: L C R, Side: L R, LFE
Sampling rate                            : 48.0 kHz
Frame rate                               : 93.750 FPS (512 spf)
Bit depth                                : 24 bits
Compression mode                         : Lossy
Stream size                              : 1.15 GiB (15%)
Language                                 : English
Default                                  : Yes
Forced                                   : No
 
Category:Movies > 1080P Bluray
Lang:English  English
Total Size:7.93 GB
Info Hash:73a189ddf9610f948852f468ba3ffafcb5b71f6d
Added By:Agent47
Date Added:18-08-2017 18:37:45
Views:100
Hits:31

Download Torrent

Ratings:Not Yet Rated (Log in to rate it)


Tracker:
http://tracker.trackerfix.com:80/announce


File List: 


Comments

No comments still posted

Powered by 10 Hamsters v2-svn -|- Page Generated In 0.039908 secs.
-|- RSS Feed -|- Feed Info
Theme By: Nikkbu