Sri Lanka | Switzerland | Tanzania
[Login] or [Signup]
Login
Username:
Password:
[Signup]
[Recover Account]


Poll


You must be logged in to view polls



Torrent Details For "Bawali Unlimited (Bengali Movie) - 2CD - HD Rip[x264 - AC3(2Ch)]"

Bawali Unlimited (Bengali Movie) - 2CD - HD Rip[x264 - AC3(2Ch)]

Download this torrent | Magnet Download
Health:
Seeds: 0
Leechers: 16
Completed:
Last Checked: 19-09-2017 07:09:22
External Torrent
Update Stats
Download Magnet


Poster


Watch-Free-HD     Download

Details
Name:Bawali Unlimited (Bengali Movie) - 2CD - HD Rip[x264 - AC3(2Ch)]
Description:
Bawali Unlimited (Bengali Movie) -
2CD - HD Rip[x264 - AC3(2Ch)]
 




General
Format                                   : Matroska
Format version                           : Version 2
File size                                : 1.40 GiB
Duration                                 : 2 h 47 min

Video
ID                                       : 1
Format                                   : AVC
Format/Info                              : Advanced Video Codec
Format profile                           : [email protected]
Format settings, CABAC                   : Yes
Format settings, RefFrames               : 4 frames
Codec ID                                 : V_MPEG4/ISO/AVC
Duration                                 : 2 h 47 min
Bit rate                                 : 1 008 kb/s
Width                                    : 712 pixels
Height                                   : 312 pixels
Display aspect ratio                     : 2.25:1
Frame rate mode                          : Constant
Frame rate                               : 25.000 FPS
Color space                              : YUV
Chroma subsampling                       : 4:2:0
Bit depth                                : 8 bits
Scan type                                : Progressive
Bits/(Pixel*Frame)                       : 0.182
Stream size                              : 1.18 GiB (84%)

Audio
ID                                       : 2
Format                                   : AC-3
Format/Info                              : Audio Coding 3
Format settings, Endianness              : Big
Codec ID                                 : A_AC3
Duration                                 : 2 h 47 min
Bit rate mode                            : Constant
Bit rate                                 : 192 kb/s
Channel(s)                               : 2 channels
Channel positions                        : Front: L R
Sampling rate                            : 48.0 kHz
Stream size                              : 230 MiB (16%)

Thumbnail




Category:Movies > Bengali
Lang:Bengali  Bengali
Total Size:1.40 GB
Info Hash:8055a2f077969e796283ca9fd90741a492528398
Added By:Pherarim
Date Added:03-08-2017 03:28:31
Views:356
Hits:104

Download Torrent

Ratings:Not Yet Rated (Log in to rate it)


Tracker:
udp://9.rarbg.me:2710/announce


File List: 


Comments

No comments still posted

Powered by 10 Hamsters v2-svn -|- Page Generated In 1.322459 secs.
-|- RSS Feed -|- Feed Info
Theme By: Nikkbu