Alibi.com | Justice League Streaming VF | RAID Dingue
[Login] or [Signup]
Login
Username:
Password:
[Signup]
[Recover Account]


Poll


You must be logged in to view polls



Torrent Details For "Bawali Unlimited (Bengali Movie) - HD Rip [x264 - AAC3(2Ch)] - 850 MB"

Bawali Unlimited (Bengali Movie) - HD Rip [x264 - AAC3(2Ch)] - 850 MB

Download this torrent | Magnet Download
Health:
Seeds: 0
Leechers: 13
Completed:
Last Checked: 20-09-2017 10:18:21
External Torrent
Update Stats
Download Magnet


Poster


Watch-Free-HD     Download

Details
Name:Bawali Unlimited (Bengali Movie) - HD Rip [x264 - AAC3(2Ch)] - 850 MB
Description:
Bawali Unlimited (Bengali Movie) - HD Rip
[x264 - AAC3(2Ch)] - 850 MB
 




General
Format                                   : Matroska
Format version                           : Version 2
File size                                : 850 MiB
Duration                                 : 2 h 47 min
Overall bit rate                         : 711 kb/s

Video
ID                                       : 1
Format                                   : AVC
Format/Info                              : Advanced Video Codec
Format profile                           : [email protected]
Format settings, CABAC                   : Yes
Format settings, RefFrames               : 4 frames
Codec ID                                 : V_MPEG4/ISO/AVC
Duration                                 : 2 h 47 min
Bit rate                                 : 581 kb/s
Width                                    : 640 pixels
Height                                   : 280 pixels
Display aspect ratio                     : 2.25:1
Frame rate mode                          : Constant
Frame rate                               : 25.000 FPS
Color space                              : YUV
Chroma subsampling                       : 4:2:0
Bit depth                                : 8 bits
Scan type                                : Progressive
Bits/(Pixel*Frame)                       : 0.130
Stream size                              : 695 MiB (82%)

Audio
ID                                       : 2
Format                                   : AAC
Format/Info                              : Advanced Audio Codec
Format profile                           : LC
Codec ID                                 : A_AAC
Duration                                 : 2 h 47 min
Bit rate                                 : 128 kb/s
Channel(s)                               : 2 channels
Channel positions                        : Front: L R
Sampling rate                            : 48.0 kHz
Stream size                              : 153 MiB (18%)

Thumbnail




Category:Movies > Bengali
Lang:Bengali  Bengali
Total Size:850.36 MB
Info Hash:94555a83863cbe9d3c323032d3eef647494c5408
Added By:Pherarim
Date Added:02-08-2017 23:01:29
Views:342
Hits:120

Download Torrent

Ratings:Not Yet Rated (Log in to rate it)


Tracker:
udp://9.rarbg.me:2710/announce


File List: 


Comments

No comments still posted

Powered by 10 Hamsters v2-svn -|- Page Generated In 1.259323 secs.
-|- RSS Feed -|- Feed Info
Theme By: Nikkbu